<?xml version="1.0" standalone="no"?>
<!DOCTYPE svg PUBLIC "-//W3C//DTD SVG 1.1//EN" "http://www.w3.org/Graphics/SVG/1.1/DTD/svg11.dtd" >
<svg xmlns="http://www.w3.org/2000/svg" xmlns:xlink="http://www.w3.org/1999/xlink" version="1.1">
<metadata>
Created by FontForge 20170910 at Mon Nov 28 11:04:35 2011
 By Jimmy Wärting
Copyright (c) 2011 by IBRAHIM HAMDI's. All rights reserved.
</metadata>
<defs>
<font id="CoconNextArabic-Regular" horiz-adv-x="0" >
  <font-face 
    font-family="Cocon Next Arabic"
    font-weight="400"
    font-stretch="normal"
    units-per-em="1000"
    panose-1="2 10 5 3 2 1 2 2 2 4"
    ascent="800"
    descent="-200"
    x-height="454"
    cap-height="603"
    bbox="-181 -342 1492 915"
    underline-thickness="50"
    underline-position="-100"
    unicode-range="U+000D-FEFC"
  />
<missing-glyph horiz-adv-x="550" 
 />
    <glyph glyph-name="lam_alef_madda.isol" unicode="&#xfedf;&#xfe82;" horiz-adv-x="618" arabic-form="isolated" 
d="M294 726v-22c0 -18 -11 -45 -37 -45h-133v35c0 14 11 32 28 32h142zM470 607c52 0 78 -26 78 -78v-359c0 -93 -56 -166 -170 -170h-263c-58 0 -85 25 -85 72v28h114v506h52c29 0 64 -23 64 -57v-449h109c47 4 64 30 64 76v431h37z" />
    <glyph glyph-name="lam_alef_madda.fina" unicode="&#xfee0;&#xfe82;" horiz-adv-x="650" arabic-form="final" 
d="M291 726v-22c0 -18 -12 -45 -37 -45h-134v35c0 14 12 32 29 32h142zM664 100h11v-100h-27c-61 0 -110 15 -145 46c-29 -28 -70 -44 -125 -46h-262c-59 0 -86 25 -86 71v29h114v506h52c29 0 64 -24 64 -58v-448h110c46 4 63 29 63 74v432h37c52 0 78 -27 78 -79v-336
c8 -65 36 -91 116 -91z" />
    <glyph glyph-name="lam_alef_hamza_above.isol" unicode="&#xfedf;&#xfe84;" horiz-adv-x="618" arabic-form="isolated" 
d="M469 607c52 0 79 -27 79 -79v-358c0 -93 -56 -166 -170 -170h-263c-59 0 -85 24 -85 71v29h114v506h52c28 0 64 -24 64 -57v-449h109c47 4 64 30 64 75v432h36zM203 684h79v-18c0 -10 -8 -21 -22 -21h-110c-14 0 -22 11 -22 21v18h30c-4 8 -4 17 -4 27c0 38 23 69 64 69
c23 0 48 -11 54 -40c0 -15 -9 -27 -13 -40c-11 39 -34 46 -44 46c-15 0 -21 -14 -21 -32c0 -14 1 -25 9 -30z" />
    <glyph glyph-name="lam_alef_hamza_above.fina" unicode="&#xfee0;&#xfe84;" horiz-adv-x="650" arabic-form="final" 
d="M664 100h11v-100h-27c-61 0 -110 15 -145 46c-29 -28 -70 -44 -125 -46h-262c-59 0 -86 25 -86 71v29h114v506h52c29 0 64 -24 64 -58v-448h110c46 4 63 29 63 74v432h37c52 0 78 -27 78 -79v-336c8 -65 36 -91 116 -91zM203 684h79v-18c0 -10 -8 -21 -22 -21h-110
c-14 0 -22 11 -22 21v18h30c-4 8 -4 17 -4 27c0 38 23 69 64 69c23 0 48 -11 54 -40c0 -15 -9 -27 -13 -40c-11 39 -34 46 -44 46c-15 0 -21 -14 -21 -32c0 -14 1 -25 9 -30z" />
    <glyph glyph-name="lam_alef_hamza_below.isol" unicode="&#xfedf;&#xfe88;" horiz-adv-x="618" arabic-form="isolated" 
d="M469 607c52 0 79 -27 79 -79v-358c0 -93 -56 -166 -170 -170h-263c-59 0 -85 24 -85 71v29h114v506h52c28 0 64 -24 64 -57v-449h108c48 4 65 30 65 75v432h36zM106 -142h79v-18c0 -10 -8 -21 -22 -21h-110c-14 0 -22 11 -22 21v18h30c-4 8 -4 17 -4 27c0 38 23 69 64 69
c23 0 48 -11 54 -40c0 -15 -9 -27 -13 -40c-11 39 -34 46 -44 46c-15 0 -21 -14 -21 -32c0 -14 1 -25 9 -30z" />
    <glyph glyph-name="lam_alef_hamza_below.fina" unicode="&#xfee0;&#xfe88;" horiz-adv-x="650" arabic-form="final" 
d="M664 100h11v-100h-27c-61 0 -110 16 -145 47c-29 -29 -70 -45 -125 -47h-262c-59 0 -86 25 -86 72v28h114v506h52c29 0 64 -24 64 -58v-448h110c46 4 63 29 63 74v432h37c52 0 78 -26 78 -79v-336c8 -65 36 -91 116 -91zM106 -142h79v-18c0 -10 -8 -21 -22 -21h-110
c-14 0 -22 11 -22 21v18h30c-4 8 -4 17 -4 27c0 38 23 69 64 69c23 0 48 -11 54 -40c0 -15 -9 -27 -13 -40c-11 39 -34 46 -44 46c-15 0 -21 -14 -21 -32c0 -14 1 -25 9 -30z" />
    <glyph glyph-name="lam_alef.isol" unicode="&#xfedf;&#xfe8e;" horiz-adv-x="618" arabic-form="isolated" 
d="M469 607c52 0 79 -27 79 -78v-359c0 -93 -56 -166 -170 -170h-263c-59 0 -85 25 -85 71v29h114v506h52c28 0 64 -24 64 -57v-449h109c47 4 64 30 64 76v431h36z" />
    <glyph glyph-name="lam_alef.fina" unicode="&#xfee0;&#xfe8e;" horiz-adv-x="635" arabic-form="final" 
d="M664 100h11v-100h-27c-61 0 -110 15 -145 46c-29 -28 -70 -44 -125 -46h-262c-59 0 -86 25 -86 71v29h114v506h52c29 0 64 -24 64 -58v-448h110c46 4 63 29 63 74v432h37c52 0 78 -27 78 -79v-336c8 -65 36 -91 116 -91z" />
    <glyph glyph-name="hamza.isol" unicode="&#x621;" horiz-adv-x="548" arabic-form="isolated" 
d="M40 100h71c-17 31 -25 67 -25 106c0 121 70 220 201 220c69 0 151 -35 166 -119c0 -15 -3 -30 -10 -46l-15 -35c-31 100 -115 116 -150 116c-61 0 -92 -52 -92 -123c0 -57 14 -97 46 -119h256v-45c0 -25 -23 -55 -58 -55h-332c-35 0 -58 30 -58 55v45z" />
    <glyph glyph-name="alef_madda.isol" unicode="&#x622;" horiz-adv-x="250" arabic-form="isolated" 
d="M177 0h-46c-35 0 -69 24 -69 77v526h51c29 0 64 -24 64 -57v-546zM218 729v-24c0 -20 -13 -49 -40 -49h-147v38c0 16 13 35 31 35h156z" />
    <glyph glyph-name="alef_madda.fina" unicode="&#x622;" horiz-adv-x="246" arabic-form="final" 
d="M218 729v-24c0 -20 -13 -49 -40 -49h-147v38c0 16 13 35 31 35h156zM243 100h13v-100h-22c-114 4 -170 77 -170 170v435h52c29 0 64 -24 64 -58v-389c4 -35 24 -54 63 -58z" />
    <glyph glyph-name="alef_hamza_above.isol" unicode="&#x623;" horiz-adv-x="234" arabic-form="isolated" 
d="M176 0h-45c-35 0 -70 24 -70 76v526h52c29 0 63 -23 63 -57v-545zM115 681h87v-20c0 -11 -9 -23 -25 -23h-121c-15 0 -24 12 -24 23v20h33c-4 9 -4 19 -4 30c0 42 25 76 70 76c26 0 53 -12 60 -44c0 -17 -10 -30 -15 -44c-12 43 -37 50 -48 50c-17 0 -23 -15 -23 -35
c0 -15 1 -27 10 -33z" />
    <glyph glyph-name="alef_hamza_above.fina" unicode="&#x623;" horiz-adv-x="246" arabic-form="final" 
d="M243 100h13v-100h-22c-115 4 -169 76 -169 170v434h51c29 0 64 -23 64 -58v-388c4 -35 24 -55 63 -58zM115 681h87v-20c0 -11 -9 -23 -25 -23h-121c-15 0 -24 12 -24 23v20h33c-4 9 -4 19 -4 30c0 42 25 76 70 76c26 0 53 -12 60 -44c0 -17 -10 -30 -15 -44
c-12 43 -37 50 -48 50c-17 0 -23 -15 -23 -35c0 -15 1 -27 10 -33z" />
    <glyph glyph-name="waw_hamza.isol" unicode="&#x624;" horiz-adv-x="477" arabic-form="isolated" 
d="M314 412c111 -43 123 -165 123 -290c0 -31 -1 -62 -1 -92c0 -72 -59 -205 -263 -205c-43 0 -70 21 -70 48v37c135 3 196 44 221 90c-122 2 -284 27 -284 206c0 121 70 220 201 220c27 0 51 -5 73 -14zM139 219c0 -108 73 -120 138 -120c22 0 44 1 61 1
c-5 100 18 242 -106 242c-62 0 -93 -52 -93 -123zM240 529h87v-20c0 -11 -9 -23 -25 -23h-121c-15 0 -24 12 -24 23v20h33c-4 9 -4 19 -4 30c0 42 25 76 70 76c26 0 53 -12 60 -44c0 -17 -10 -30 -15 -44c-12 43 -37 50 -48 50c-17 0 -23 -15 -23 -35c0 -15 1 -27 10 -33z
" />
    <glyph glyph-name="waw_hamza.fina" unicode="&#x624;" horiz-adv-x="529" arabic-form="final" 
d="M544 100v-100h-113c-17 -73 -84 -170 -258 -170c-43 0 -70 21 -70 48v36c135 4 196 39 221 86c-122 2 -284 32 -284 210c0 122 70 220 201 220c27 0 51 -4 73 -13v1c91 -36 125 -133 124 -226l-1 -92h107zM338 100c-5 100 18 246 -106 246c-62 0 -93 -51 -93 -122
c0 -113 81 -125 148 -125c19 0 37 1 51 1zM240 529h87v-20c0 -11 -9 -23 -25 -23h-121c-15 0 -24 12 -24 23v20h33c-4 9 -4 19 -4 30c0 42 25 76 70 76c26 0 53 -12 60 -44c0 -17 -10 -30 -15 -44c-12 43 -37 50 -48 50c-17 0 -23 -15 -23 -35c0 -15 1 -27 10 -33z" />
    <glyph glyph-name="alef_hamza_below.isol" unicode="&#x625;" horiz-adv-x="234" arabic-form="isolated" 
d="M176 0h-45c-35 0 -70 24 -70 76v527h52c29 0 63 -24 63 -57v-546zM115 -145h87v-20c0 -11 -9 -23 -25 -23h-121c-15 0 -24 12 -24 23v20h33c-4 9 -4 19 -4 30c0 42 25 76 70 76c26 0 53 -12 60 -44c0 -17 -10 -30 -15 -44c-12 43 -37 50 -48 50c-17 0 -23 -15 -23 -35
c0 -15 1 -27 10 -33z" />
    <glyph glyph-name="alef_hamza_below.fina" unicode="&#x625;" horiz-adv-x="231" arabic-form="final" 
d="M229 100h12v-100h-20c-115 4 -171 76 -171 170v434h52c30 0 64 -23 64 -58v-389c4 -34 23 -53 63 -57zM125 -145h87v-20c0 -11 -9 -23 -25 -23h-121c-15 0 -24 12 -24 23v20h33c-4 9 -4 19 -4 30c0 42 25 76 70 76c26 0 53 -12 60 -44c0 -17 -10 -30 -15 -44
c-12 43 -37 50 -48 50c-17 0 -23 -15 -23 -35c0 -15 1 -27 10 -33z" />
    <glyph glyph-name="yeh_hamza_above.isol" unicode="&#x626;" horiz-adv-x="908" arabic-form="isolated" 
d="M153 368h87v-20c0 -11 -9 -23 -25 -23h-121c-15 0 -24 12 -24 23v20h33c-4 9 -4 19 -4 30c0 42 25 76 70 76c26 0 53 -12 60 -44c0 -17 -6 -32 -15 -44c-12 43 -37 50 -48 50c-17 0 -23 -15 -23 -35c0 -15 1 -27 10 -33zM342 -158c183 0 196 121 204 242
c11 129 28 236 197 238v-322h49c25 0 51 21 51 52v373h-93c-461 0 -190 -488 -400 -488c-173 0 -187 81 -187 174c0 118 80 156 80 156l-52 5c-75 0 -121 -66 -121 -169c0 -169 92 -261 272 -261z" />
    <glyph glyph-name="yeh_hamza_above.fina" unicode="&#x626;" horiz-adv-x="923" arabic-form="final" 
d="M153 368h87v-20c0 -11 -9 -23 -25 -23h-121c-15 0 -24 12 -24 23v20h33c-4 9 -4 19 -4 30c0 42 25 76 70 76c26 0 53 -12 60 -44c0 -17 -5 -31 -15 -44c-12 43 -37 50 -48 50c-17 0 -23 -15 -23 -35c0 -15 1 -27 10 -33zM743 0v322c-169 -2 -186 -109 -197 -238
c-10 -141 -38 -242 -204 -242c-180 0 -272 92 -272 261c0 103 46 169 121 169l52 -5s-80 -38 -80 -156c0 -94 14 -172 185 -174h2c154 0 53 235 148 383c45 71 127 105 252 105h93v-325h90v-100h-190z" />
    <glyph glyph-name="yeh_hamza_above.init" unicode="&#x626;" horiz-adv-x="286" arabic-form="initial" 
d="M169 341c51 0 77 -27 77 -79v-92c0 -93 -55 -166 -169 -170h-92v100h83c46 5 64 30 64 76v165h37zM179 446h87v-20c0 -11 -9 -23 -25 -23h-121c-15 0 -24 12 -24 23v20h33c-4 9 -4 19 -4 30c0 42 25 76 70 76c26 0 53 -12 60 -44c0 -17 -6 -32 -15 -44
c-12 43 -37 50 -48 50c-17 0 -23 -15 -23 -35c0 -15 1 -27 10 -33z" />
    <glyph glyph-name="yeh_hamza_above.medi" unicode="&#x626;" horiz-adv-x="297" arabic-form="medial" 
d="M207 201c4 -70 28 -101 105 -101v-100h-4c-62 0 -111 16 -146 47c-29 -28 -70 -45 -125 -47h-52v100h43c47 4 65 29 65 75v165h36c52 0 78 -26 78 -78v-61zM140 450h87v-20c0 -11 -9 -23 -25 -23h-121c-15 0 -24 12 -24 23v20h33c-4 9 -4 19 -4 30c0 42 25 76 70 76
c26 0 53 -12 60 -44c0 -17 -6 -31 -15 -44c-12 43 -37 50 -48 50c-17 0 -23 -15 -23 -35c0 -15 1 -27 10 -33z" />
    <glyph glyph-name="alef.isol" unicode="&#x627;" horiz-adv-x="235" arabic-form="isolated" 
d="M175 0h-46c-35 0 -69 24 -69 77v526h51c29 0 64 -24 64 -57v-546z" />
    <glyph glyph-name="alef.fina" unicode="&#x627;" horiz-adv-x="221" arabic-form="final" 
d="M219 100h12v-100h-20c-115 4 -171 76 -171 170v434h52c30 0 64 -23 64 -58v-389c4 -34 23 -53 63 -57z" />
    <glyph glyph-name="beh.isol" unicode="&#x628;" horiz-adv-x="796" arabic-form="isolated" 
d="M427 -169c-31 0 -57 25 -57 57s26 57 57 57c32 0 58 -25 58 -57s-26 -57 -58 -57zM677 341c52 0 79 -27 79 -79v-92c0 -94 -56 -167 -171 -170h-319c-186 0 -196 160 -196 221c0 94 28 165 107 165h36c-42 -36 -57 -104 -57 -149c0 -39 2 -137 98 -137h322
c47 4 64 30 64 76v165h37z" />
    <glyph glyph-name="beh.fina" unicode="&#x628;" horiz-adv-x="857" arabic-form="final" 
d="M427 -170c-32 0 -57 25 -57 57s25 57 57 57s58 -25 58 -57s-26 -57 -58 -57zM872 100h10v-100h-26c-63 0 -112 16 -147 47c-29 -28 -69 -45 -124 -47h-320c-185 0 -195 160 -195 221c0 93 28 165 107 165h36c-42 -36 -57 -104 -57 -149c0 -39 2 -137 97 -137h323
c47 4 64 30 64 75v166h37c51 0 78 -27 78 -79v-63c5 -72 33 -99 117 -99z" />
    <glyph glyph-name="beh.init" unicode="&#x628;" horiz-adv-x="286" arabic-form="initial" 
d="M200 -112c1 -33 -28 -58 -58 -58c-31 0 -56 25 -56 58c0 31 24 57 56 57c31 0 58 -25 58 -57zM169 341c51 0 77 -27 77 -79v-92c0 -93 -55 -166 -169 -170h-92v100h83c46 5 64 30 64 76v165h37z" />
    <glyph glyph-name="beh.medi" unicode="&#x628;" horiz-adv-x="297" arabic-form="medial" 
d="M149 -55c31 0 57 -25 57 -58c0 -32 -26 -56 -57 -56c-32 0 -57 24 -57 56c0 33 25 58 57 58zM207 201c4 -70 30 -101 105 -101v-101h-4c-62 0 -111 17 -146 48c-40 -39 -94 -48 -177 -48v101h43c47 4 65 29 65 75v165h36c52 0 78 -26 78 -78v-61z" />
    <glyph glyph-name="tehmarbuta.isol" unicode="&#x629;" horiz-adv-x="504" arabic-form="isolated" 
d="M271 425c122 0 193 -98 193 -206c0 -122 -71 -219 -202 -219c-122 0 -192 97 -192 206c0 121 70 219 201 219zM262 341c-62 0 -93 -51 -93 -122c0 -85 31 -135 102 -135c63 0 93 50 93 122c0 84 -32 135 -102 135zM332 500c-32 0 -56 24 -56 55c0 32 24 55 56 55
c29 0 55 -23 55 -55c0 -31 -26 -55 -55 -55zM205 500c-32 0 -56 24 -56 55c0 32 24 55 56 55c31 0 57 -23 57 -55c0 -31 -26 -55 -57 -55z" />
    <glyph glyph-name="tehmarbuta.fina" unicode="&#x629;" horiz-adv-x="536" arabic-form="final" 
d="M168 500c-31 0 -56 25 -56 58c0 31 25 56 56 56c33 0 59 -25 59 -56c0 -33 -26 -58 -59 -58zM303 500c-31 0 -57 25 -57 58c0 31 26 56 57 56c32 0 58 -25 58 -56c0 -33 -26 -58 -58 -58zM484 100h71v-100c6 -1 -170 2 -231 -1c-122 3 -284 27 -284 206
c0 121 70 220 201 220c141 0 198 -123 197 -239l-1 -86h47zM139 218c0 -132 133 -116 199 -118c0 22 1 47 1 72c0 84 -11 169 -107 169c-62 0 -93 -51 -93 -123z" />
    <glyph glyph-name="teh.isol" unicode="&#x62a;" horiz-adv-x="796" arabic-form="isolated" 
d="M440 468c0 33 25 58 56 58s59 -25 59 -58c0 -32 -28 -57 -59 -57s-56 25 -56 57zM677 341c52 0 79 -27 79 -79v-92c0 -94 -56 -167 -171 -170h-319c-186 0 -196 160 -196 221c0 94 28 165 107 165h36c-42 -36 -57 -104 -57 -149c0 -39 2 -137 98 -137h322
c47 4 64 30 64 76v165h37zM367 411c-32 0 -58 25 -58 57c0 33 26 58 58 58s58 -25 58 -58c0 -32 -26 -57 -58 -57z" />
    <glyph glyph-name="teh.fina" unicode="&#x62a;" horiz-adv-x="857" arabic-form="final" 
d="M442 468c0 33 25 58 57 58c31 0 58 -25 58 -58c0 -32 -27 -57 -58 -57c-32 0 -57 25 -57 57zM364 411c-31 0 -57 25 -57 57c0 33 26 58 57 58c32 0 58 -25 58 -58c0 -32 -26 -57 -58 -57zM872 100h10v-100h-26c-63 0 -112 16 -147 47c-29 -27 -69 -46 -124 -47h-320
c-185 0 -195 160 -195 221c0 94 28 165 107 165h36c-42 -36 -57 -104 -57 -149c0 -39 2 -137 97 -137h323c47 4 64 30 64 76v165h37c51 0 78 -27 78 -79v-62c5 -72 33 -100 117 -100z" />
    <glyph glyph-name="teh.init" unicode="&#x62a;" horiz-adv-x="286" arabic-form="initial" 
d="M169 341c51 0 77 -27 77 -79v-92c0 -93 -55 -166 -169 -170h-92v100h83c46 5 64 30 64 76v165h37zM116 413c-32 0 -58 25 -58 57s26 57 58 57c31 0 57 -25 57 -57s-26 -57 -57 -57zM245 413c-31 0 -56 25 -56 57s25 57 56 57s59 -25 59 -57s-28 -57 -59 -57z" />
    <glyph glyph-name="teh.medi" unicode="&#x62a;" horiz-adv-x="297" arabic-form="medial" 
d="M83 411c-32 0 -58 25 -58 57c0 33 26 58 58 58c31 0 57 -25 57 -58c0 -32 -26 -57 -57 -57zM207 201c4 -70 30 -99 105 -101v-100h-4c-62 0 -111 16 -146 47c-29 -28 -70 -45 -125 -47h-52v100h43c47 4 65 29 65 75v165h36c52 0 78 -26 78 -78v-61zM213 411
c-31 0 -57 25 -57 57c0 33 26 58 57 58c32 0 58 -25 58 -58c0 -32 -26 -57 -58 -57z" />
    <glyph glyph-name="theh.isol" unicode="&#x62b;" horiz-adv-x="796" arabic-form="isolated" 
d="M432 523c-29 0 -52 24 -52 52c0 29 23 52 52 52s53 -23 53 -52c0 -28 -24 -52 -53 -52zM440 463c0 33 25 58 56 58s59 -25 59 -58c0 -32 -28 -57 -59 -57s-56 25 -56 57zM677 341c52 0 79 -27 79 -79v-92c0 -94 -56 -167 -171 -170h-319c-186 0 -196 160 -196 221
c0 94 28 165 107 165h36c-42 -36 -57 -104 -57 -149c0 -39 2 -137 98 -137h322c47 4 64 30 64 76v165h37zM367 406c-32 0 -58 25 -58 57c0 33 26 58 58 58s58 -25 58 -58c0 -32 -26 -57 -58 -57z" />
    <glyph glyph-name="theh.fina" unicode="&#x62b;" horiz-adv-x="857" arabic-form="final" 
d="M432 523c-29 0 -52 24 -52 52c0 29 23 52 52 52s53 -23 53 -52c0 -28 -24 -52 -53 -52zM442 463c0 33 25 58 57 58c31 0 58 -25 58 -58c0 -32 -27 -57 -58 -57c-32 0 -57 25 -57 57zM364 406c-31 0 -57 25 -57 57c0 33 26 58 57 58c32 0 58 -25 58 -58
c0 -32 -26 -57 -58 -57zM872 100h10v-100h-26c-63 0 -112 16 -147 47c-29 -28 -69 -45 -124 -47h-320c-185 0 -195 160 -195 221c0 93 28 165 107 165h36c-42 -36 -57 -104 -57 -149c0 -39 2 -137 97 -137h323c47 4 64 30 64 75v166h37c51 0 78 -27 78 -79v-63
c5 -72 33 -99 117 -99z" />
    <glyph glyph-name="theh.init" unicode="&#x62b;" horiz-adv-x="286" arabic-form="initial" 
d="M169 341c51 0 77 -27 77 -79v-92c0 -93 -55 -166 -169 -170h-92v100h83c46 5 64 30 64 76v165h37zM116 408c-32 0 -58 25 -58 57s26 57 58 57c31 0 57 -25 57 -57s-26 -57 -57 -57zM245 408c-31 0 -56 25 -56 57s25 57 56 57s59 -25 59 -57s-28 -57 -59 -57zM181 525
c-29 0 -51 23 -51 51c0 29 22 52 51 52s53 -23 53 -52c0 -28 -24 -51 -53 -51z" />
    <glyph glyph-name="theh.medi" unicode="&#x62b;" horiz-adv-x="297" arabic-form="medial" 
d="M83 406c-32 0 -58 25 -58 57c0 33 26 58 58 58c31 0 57 -25 57 -58c0 -32 -26 -57 -57 -57zM148 523c-29 0 -51 24 -51 52c0 29 22 52 51 52c27 0 53 -23 53 -52c0 -28 -26 -52 -53 -52zM207 201c4 -70 30 -99 105 -101v-100h-4c-62 0 -111 16 -146 47
c-29 -28 -70 -45 -125 -47h-52v100h43c47 4 65 29 65 75v165h36c52 0 78 -26 78 -78v-61zM213 406c-31 0 -57 25 -57 57c0 33 26 58 57 58c32 0 58 -25 58 -58c0 -32 -26 -57 -58 -57z" />
    <glyph glyph-name="jeem.isol" unicode="&#x62c;" horiz-adv-x="582" arabic-form="isolated" 
d="M319 -176c-32 0 -57 25 -57 57c0 31 25 57 57 57s58 -26 58 -57c0 -32 -26 -57 -58 -57zM70 -142c0 189 114 244 286 244c25 0 52 -2 79 -4c-16 64 -63 226 -184 226c-56 0 -96 -15 -139 -56v38c0 67 16 118 161 118c196 0 269 -222 269 -392c0 -35 -2 -67 -9 -96
c-17 49 -99 74 -182 74c-94 0 -187 -36 -187 -124c0 -23 -10 -140 149 -140c55 0 114 21 146 51v-35c0 -72 -86 -102 -159 -102c-84 0 -230 49 -230 198z" />
    <glyph glyph-name="jeem.fina" unicode="&#x62c;" horiz-adv-x="619" arabic-form="final" 
d="M320 -177c-33 0 -58 25 -58 57s25 57 58 57c32 0 57 -25 57 -57s-25 -57 -57 -57zM634 100h10v-100h-26c-48 0 -79 11 -104 29v-1c0 -4 -47 -29 -137 -29c-11 0 -22 0 -34 1c-112 0 -179 -43 -179 -115c0 -23 -10 -140 149 -140c55 0 115 21 146 51v-34
c0 -72 -85 -103 -159 -103c-83 0 -230 49 -230 198c0 191 114 244 278 244c28 0 56 -2 86 -4c0 71 -80 226 -183 226c-56 0 -96 -15 -139 -56v39c0 66 16 118 161 118c167 0 227 -165 254 -271c13 -38 45 -53 107 -53z" />
    <glyph glyph-name="jeem.init" unicode="&#x62c;" horiz-adv-x="541" arabic-form="initial" 
d="M249 -175c-33 0 -57 25 -57 58c0 31 24 57 57 57c31 0 57 -26 57 -57c0 -33 -26 -58 -57 -58zM-5 0v100h379c-15 64 -63 224 -184 224c-56 0 -95 -15 -139 -56v38c0 67 18 119 162 119c196 0 268 -223 268 -395c0 -34 -2 -66 -8 -94c-19 40 -85 59 -156 64h-322z" />
    <glyph glyph-name="jeem.medi" unicode="&#x62c;" horiz-adv-x="548" arabic-form="medial" 
d="M227 -173c-33 0 -57 25 -57 57s24 57 57 57c31 0 57 -25 57 -57s-26 -57 -57 -57zM-5 0v100h374c-16 64 -63 224 -184 224c-56 0 -96 -15 -140 -56v38c0 67 18 118 163 118c173 0 246 -176 265 -324h90v-100h-568z" />
    <glyph glyph-name="hah.isol" unicode="&#x62d;" horiz-adv-x="582" arabic-form="isolated" 
d="M70 -142c0 192 116 244 282 244c27 0 54 -2 83 -4c-16 64 -63 226 -184 226c-56 0 -96 -15 -139 -56v38c0 67 16 118 161 118c196 0 269 -222 269 -392c0 -35 -2 -67 -9 -96c-17 49 -99 65 -182 65c-94 0 -187 -27 -187 -115c0 -23 -10 -140 149 -140c55 0 114 21 146 51
v-35c0 -72 -86 -102 -159 -102c-84 0 -230 49 -230 198z" />
    <glyph glyph-name="hah.fina" unicode="&#x62d;" horiz-adv-x="619" arabic-form="final" 
d="M634 100h10v-100h-26c-48 0 -79 11 -104 29v-1c0 -4 -47 -29 -137 -29c-11 0 -22 0 -34 1c-112 0 -179 -43 -179 -115c0 -23 -10 -140 149 -140c55 0 115 21 146 51v-34c0 -72 -85 -103 -159 -103c-83 0 -230 49 -230 198c0 191 114 244 278 244c28 0 56 -2 86 -4
c0 71 -80 226 -183 226c-56 0 -96 -15 -139 -56v39c0 66 16 118 161 118c167 0 227 -165 254 -271c13 -38 45 -53 107 -53z" />
    <glyph glyph-name="hah.init" unicode="&#x62d;" horiz-adv-x="541" arabic-form="initial" 
d="M-5 0v100h379c-15 64 -63 224 -184 224c-56 0 -95 -15 -139 -56v38c0 67 18 119 162 119c196 0 268 -223 268 -395c0 -34 -2 -66 -8 -94c-19 40 -85 59 -156 64h-322z" />
    <glyph glyph-name="hah.medi" unicode="&#x62d;" horiz-adv-x="549" arabic-form="medial" 
d="M-5 0v100h375c-16 64 -63 224 -184 224c-57 0 -96 -15 -140 -56v38c0 67 17 118 162 118c173 0 247 -177 265 -324h91v-100h-569z" />
    <glyph glyph-name="khah.isol" unicode="&#x62e;" horiz-adv-x="582" arabic-form="isolated" 
d="M70 -142c0 192 116 244 282 244c27 0 54 -2 83 -4c-16 64 -63 226 -184 226c-56 0 -96 -15 -139 -56v38c0 67 16 118 161 118c196 0 269 -222 269 -392c0 -35 -2 -67 -9 -96c-17 49 -99 65 -182 65c-94 0 -187 -27 -187 -115c0 -23 -10 -140 149 -140c55 0 114 21 146 51
v-35c0 -72 -86 -102 -159 -102c-84 0 -230 49 -230 198zM270 500c-32 0 -56 26 -56 58s24 56 56 56s59 -24 59 -56s-27 -58 -59 -58z" />
    <glyph glyph-name="khah.fina" unicode="&#x62e;" horiz-adv-x="619" arabic-form="final" 
d="M634 100h10v-100h-26c-48 0 -79 11 -104 29v-1c0 -4 -47 -29 -137 -29c-11 0 -22 0 -34 1c-112 0 -179 -43 -179 -115c0 -23 -10 -140 149 -140c55 0 115 21 146 51v-34c0 -72 -85 -103 -159 -103c-83 0 -230 49 -230 198c0 191 114 244 278 244c28 0 56 -2 86 -4
c0 71 -80 226 -183 226c-56 0 -96 -15 -139 -56v39c0 66 16 118 161 118c167 0 227 -165 254 -271c13 -38 45 -53 107 -53zM270 500c-32 0 -56 26 -56 58s24 56 56 56s59 -24 59 -56s-27 -58 -59 -58z" />
    <glyph glyph-name="khah.init" unicode="&#x62e;" horiz-adv-x="541" arabic-form="initial" 
d="M204 500c-32 0 -56 26 -56 59c0 31 24 56 56 56s58 -25 58 -56c0 -33 -26 -59 -58 -59zM-5 0v100h379c-15 64 -63 224 -184 224c-56 0 -95 -15 -139 -56v38c0 67 18 119 162 119c196 0 268 -223 268 -395c0 -34 -2 -66 -8 -94c-19 40 -85 59 -156 64h-322z" />
    <glyph glyph-name="khah.medi" unicode="&#x62e;" horiz-adv-x="549" arabic-form="medial" 
d="M-5 0v100h375c-16 64 -63 224 -184 224c-57 0 -96 -15 -140 -56v38c0 67 17 118 162 118c173 0 247 -177 265 -324h91v-100h-569zM202 500c-33 0 -56 26 -56 58s23 56 56 56c31 0 58 -24 58 -56s-27 -58 -58 -58z" />
    <glyph glyph-name="dal.isol" unicode="&#x62f;" horiz-adv-x="465" arabic-form="isolated" 
d="M425 100v-100h-325c-37 0 -55 30 -55 60v40h276c0 127 -86 182 -89 184c-33 21 -65 30 -100 30c-15 0 -31 -1 -49 -4l20 32c22 35 48 55 91 55c13 0 27 -2 43 -6c2 0 65 -16 106 -65c15 -19 82 -98 82 -226z" />
    <glyph glyph-name="dal.fina" unicode="&#x62f;" horiz-adv-x="538" arabic-form="final" 
d="M537 100h11v-100h-6c-59 0 -90 5 -127 40c-20 -19 -42 -40 -74 -40h-236c-37 0 -55 30 -55 60v40h276c0 126 -86 182 -89 184c-33 21 -65 30 -100 30c-15 0 -31 -1 -49 -4l20 32c22 35 48 55 91 55c13 0 27 -2 43 -6c2 0 65 -16 106 -65c11 -14 50 -60 70 -134
c25 -74 30 -92 119 -92z" />
    <glyph glyph-name="thal.isol" unicode="&#x630;" horiz-adv-x="465" arabic-form="isolated" 
d="M425 100v-100h-325c-37 0 -55 30 -55 60v40h276c0 127 -86 182 -89 184c-33 21 -65 30 -100 30c-15 0 -31 -1 -49 -4l20 32c22 35 48 55 91 55c13 0 27 -2 43 -6c2 0 65 -16 106 -65c15 -19 82 -98 82 -226zM222 500c-32 0 -57 26 -57 58s25 56 57 56c31 0 57 -24 57 -56
s-26 -58 -57 -58z" />
    <glyph glyph-name="thal.fina" unicode="&#x630;" horiz-adv-x="538" arabic-form="final" 
d="M222 500c-32 0 -57 26 -57 58s25 56 57 56c31 0 57 -24 57 -56s-26 -58 -57 -58zM537 100h11v-100h-6c-59 0 -90 5 -127 40c-20 -19 -42 -40 -74 -40h-236c-37 0 -55 30 -55 60v40h276c0 126 -86 182 -89 184c-33 21 -65 30 -100 30c-15 0 -31 -1 -49 -4l20 32
c22 35 48 55 91 55c13 0 27 -2 43 -6c2 0 65 -16 106 -65c11 -14 50 -60 70 -134c25 -74 30 -92 119 -92z" />
    <glyph glyph-name="reh.isol" unicode="&#x631;" horiz-adv-x="317" arabic-form="isolated" 
d="M267 -39c0 -71 -61 -136 -145 -136c-49 0 -82 22 -82 61v42c18 -3 37 -4 40 -4c79 0 71 68 71 176v242h43c56 0 73 -23 73 -80v-301z" />
    <glyph glyph-name="reh.fina" unicode="&#x631;" horiz-adv-x="358" arabic-form="final" 
d="M275 0h-8v-39c0 -71 -56 -136 -140 -136c-49 0 -82 22 -82 61v42c18 -3 37 -4 41 -4c81 0 70 68 70 176v242h43c56 0 74 -23 74 -80v-160c6 -1 13 -2 23 -2h67v-100h-88z" />
    <glyph glyph-name="zain.isol" unicode="&#x632;" horiz-adv-x="312" arabic-form="isolated" 
d="M251 462c0 -32 -27 -58 -57 -58c-31 0 -57 26 -57 58s25 57 57 57c31 0 57 -25 57 -57zM262 -39c0 -71 -61 -136 -145 -136c-49 0 -82 22 -82 61v42c18 -3 37 -4 40 -4c79 0 71 68 71 176v242h43c56 0 73 -23 73 -80v-301z" />
    <glyph glyph-name="zain.fina" unicode="&#x632;" horiz-adv-x="348" arabic-form="final" 
d="M171 410c-20 10 -33 29 -33 53c0 31 24 57 57 57c31 0 57 -25 57 -57c0 -33 -27 -58 -57 -58c-9 0 -17 2 -24 5zM265 0h-8v-39c0 -71 -56 -136 -140 -136c-49 0 -82 22 -82 61v42c18 -3 37 -4 41 -4c81 0 70 68 70 176v242h43c56 0 74 -23 74 -80v-160c6 -1 13 -2 23 -2
h67v-100h-88z" />
    <glyph glyph-name="seen.isol" unicode="&#x633;" horiz-adv-x="1189" arabic-form="isolated" 
d="M1070 394c52 0 79 -26 79 -78v-145c0 -94 -56 -166 -171 -170h-8c-9 0 -95 -1 -145 36c-2 -1 -4 -3 -5 -5c-34 -23 -78 -32 -140 -32h-74c-24 -115 -165 -197 -284 -197c-165 0 -282 135 -282 299c0 86 35 150 106 150h36c-42 -37 -56 -104 -56 -149
c0 -100 72 -197 180 -197c130 0 196 71 196 176v312h51c29 0 64 -24 64 -57v-237h87c47 5 65 30 65 76v218h36c52 0 78 -27 78 -78v-82c0 -46 -3 -80 -7 -106c13 -19 36 -28 80 -28c60 5 77 31 77 76v218h37z" />
    <glyph glyph-name="seen.fina" unicode="&#x633;" horiz-adv-x="1250" arabic-form="final" 
d="M1214 100h46v-100h-38c-46 0 -88 13 -115 44c-29 -31 -88 -43 -129 -44h-8c-9 0 -95 -1 -145 36c-29 -29 -83 -36 -145 -36h-74c-24 -115 -164 -197 -284 -197c-165 0 -282 135 -282 299c0 86 35 150 106 150h36c-42 -37 -56 -104 -56 -149c0 -100 72 -197 180 -197
c130 0 196 71 196 176v312h51c29 0 64 -24 64 -57v-237h87c47 5 65 29 65 75v219h36c52 0 78 -27 78 -78v-83c0 -46 -3 -80 -7 -106c13 -19 36 -27 80 -27c60 5 77 30 77 75v219h37c52 0 79 -26 79 -78v-65c1 -11 1 -22 1 -34v-53c3 -46 29 -64 64 -64z" />
    <glyph glyph-name="seen.init" unicode="&#x633;" horiz-adv-x="786" arabic-form="initial" 
d="M667 394c52 0 79 -26 79 -78v-145c0 -94 -56 -167 -171 -171h-9c-7 0 -94 0 -144 37c-2 -1 -4 -3 -6 -5c-33 -23 -77 -32 -140 -32h-286v100h108v294h51c29 0 64 -24 64 -57v-237h87c47 5 65 30 65 76v218h36c52 0 78 -27 78 -78v-82c0 -46 -2 -80 -7 -106
c13 -19 37 -28 81 -28c60 5 77 31 77 76v218h37z" />
    <glyph glyph-name="seen.medi" unicode="&#x633;" horiz-adv-x="847" arabic-form="medial" 
d="M811 100h46v-100h-38c-45 0 -88 13 -115 44c-29 -31 -86 -43 -129 -44h-8c-9 0 -95 -1 -145 36c-29 -29 -83 -36 -145 -36h-287v100h109v294h51c29 0 64 -24 64 -57v-237h87c47 5 65 29 65 75v219h36c52 0 78 -27 78 -78v-83c0 -46 -3 -80 -7 -106c13 -19 36 -27 80 -27
c60 5 77 30 77 75v219h37c52 0 79 -26 79 -78c0 -82 1 -88 1 -152c3 -46 29 -64 64 -64z" />
    <glyph glyph-name="sheen.isol" unicode="&#x634;" horiz-adv-x="1183" arabic-form="isolated" 
d="M1070 394c52 0 79 -26 79 -78v-145c0 -94 -56 -166 -171 -170h-8c-9 0 -95 -1 -145 36c-2 -1 -4 -3 -5 -5c-34 -23 -78 -32 -140 -32h-74c-24 -115 -165 -197 -284 -197c-165 0 -282 135 -282 299c0 86 35 150 106 150h36c-42 -37 -56 -104 -56 -149
c0 -100 72 -197 180 -197c130 0 196 71 196 176v312h51c29 0 64 -24 64 -57v-237h87c47 5 65 30 65 76v218h36c52 0 78 -27 78 -78v-82c0 -46 -3 -80 -7 -106c13 -19 36 -28 80 -28c60 5 77 31 77 76v218h37zM759 500c-31 0 -58 26 -58 58c0 31 27 59 58 59s57 -28 57 -59
c0 -32 -26 -58 -57 -58zM888 500c-30 0 -57 26 -57 58c0 31 27 59 57 59c31 0 59 -28 59 -59c0 -32 -28 -58 -59 -58zM823 614c-29 0 -52 25 -52 52c0 29 23 53 52 53c27 0 52 -24 52 -53c0 -27 -25 -52 -52 -52z" />
    <glyph glyph-name="sheen.fina" unicode="&#x634;" horiz-adv-x="1250" arabic-form="final" 
d="M1214 100h46v-100h-38c-46 0 -88 13 -115 44c-29 -31 -88 -43 -129 -44h-8c-9 0 -95 -1 -145 36c-29 -29 -83 -36 -145 -36h-74c-24 -115 -164 -197 -284 -197c-165 0 -282 135 -282 299c0 86 35 150 106 150h36c-42 -37 -56 -104 -56 -149c0 -100 72 -197 180 -197
c130 0 196 71 196 176v312h51c29 0 64 -24 64 -57v-237h87c47 5 65 29 65 75v219h36c52 0 78 -27 78 -78v-83c0 -46 -3 -80 -7 -106c13 -19 36 -27 80 -27c60 5 77 30 77 75v219h37c52 0 79 -26 79 -78v-65c1 -11 1 -22 1 -34v-53c3 -46 29 -64 64 -64zM759 500
c-31 0 -58 26 -58 58c0 31 27 59 58 59s57 -28 57 -59c0 -32 -26 -58 -57 -58zM888 500c-30 0 -57 26 -57 58c0 31 27 59 57 59c31 0 59 -28 59 -59c0 -32 -28 -58 -59 -58zM823 614c-29 0 -52 25 -52 52c0 29 23 53 52 53c27 0 52 -24 52 -53c0 -27 -25 -52 -52 -52z" />
    <glyph glyph-name="sheen.init" unicode="&#x634;" horiz-adv-x="786" arabic-form="initial" 
d="M667 394c52 0 79 -26 79 -78v-145c0 -94 -56 -167 -171 -171h-9c-7 0 -94 0 -144 37c-2 -1 -4 -3 -6 -5c-33 -23 -77 -32 -140 -32h-286v100h108v294h51c29 0 64 -24 64 -57v-237h87c47 5 65 30 65 76v218h36c52 0 78 -27 78 -78v-82c0 -46 -2 -80 -7 -106
c13 -19 37 -28 81 -28c60 5 77 31 77 76v218h37zM356 500c-31 0 -58 26 -58 58c0 31 27 59 58 59s57 -28 57 -59c0 -32 -26 -58 -57 -58zM485 500c-30 0 -57 26 -57 58c0 31 27 59 57 59c31 0 59 -28 59 -59c0 -32 -28 -58 -59 -58zM420 614c-29 0 -52 25 -52 52
c0 29 23 53 52 53c27 0 52 -24 52 -53c0 -27 -25 -52 -52 -52z" />
    <glyph glyph-name="sheen.medi" unicode="&#x634;" horiz-adv-x="847" arabic-form="medial" 
d="M811 100h46v-100h-38c-45 0 -88 13 -115 44c-29 -31 -86 -43 -129 -44h-8c-9 0 -95 -1 -145 36c-29 -29 -83 -36 -145 -36h-287v100h109v294h51c29 0 64 -24 64 -57v-237h87c47 5 65 29 65 75v219h36c52 0 78 -27 78 -78v-83c0 -46 -3 -80 -7 -106c13 -19 36 -27 80 -27
c60 5 77 30 77 75v219h37c52 0 79 -26 79 -78c0 -82 1 -88 1 -152c3 -46 29 -64 64 -64zM356 500c-31 0 -58 26 -58 58c0 31 27 59 58 59s57 -28 57 -59c0 -32 -26 -58 -57 -58zM485 500c-30 0 -57 26 -57 58c0 31 27 59 57 59c31 0 59 -28 59 -59c0 -32 -28 -58 -59 -58z
M420 614c-29 0 -52 25 -52 52c0 29 23 53 52 53c27 0 52 -24 52 -53c0 -27 -25 -52 -52 -52z" />
    <glyph glyph-name="sad.isol" unicode="&#x635;" horiz-adv-x="1148" arabic-form="isolated" 
d="M645 100h368c0 91 -5 204 -153 212c-119 -7 -197 -135 -215 -212zM885 424c163 0 223 -170 223 -296c0 -72 -19 -128 -49 -128h-432c-30 -113 -140 -202 -276 -202c-165 0 -281 111 -281 274c0 86 35 150 106 150h36c-42 -36 -56 -104 -56 -149c0 -100 72 -174 180 -174
c129 0 195 72 195 178c0 4 -1 237 -1 252h22c55 0 77 1 77 -74v-16c62 102 151 185 256 185z" />
    <glyph glyph-name="sad.fina" unicode="&#x635;" horiz-adv-x="1180" arabic-form="final" 
d="M1185 100h10v-99h-26c-33 0 -61 4 -87 13c-6 -8 -14 -14 -23 -14h-432c-30 -114 -140 -202 -276 -202c-165 0 -281 112 -281 275c0 86 35 149 106 149h36c-42 -36 -56 -103 -56 -148c0 -100 72 -174 180 -174c129 0 194 72 194 178v252h22c55 0 77 0 77 -74v-17
c62 103 151 185 256 185c163 0 223 -170 223 -295v-15c18 -9 43 -14 77 -14zM772 287c-64 -44 -115 -137 -127 -187h368c0 90 -5 205 -153 212c-33 -1 -61 -9 -88 -25z" />
    <glyph glyph-name="sad.init" unicode="&#x635;" horiz-adv-x="696" arabic-form="initial" 
d="M-10 0v100h86c0 20 -1 50 -1 81c0 64 1 134 1 149h23c55 0 77 1 77 -74v-16c61 101 149 185 256 185c164 0 224 -171 224 -296c0 -72 -20 -129 -50 -129h-616zM192 100h364c0 14 1 27 1 42c0 79 -23 165 -149 170c-118 -4 -198 -137 -216 -212z" />
    <glyph glyph-name="sad.medi" unicode="&#x635;" horiz-adv-x="751" arabic-form="medial" 
d="M-15 0v100h111v230h23c55 0 77 0 77 -74v-17c61 102 149 185 255 185c164 0 224 -170 224 -295v-29h91v-100h-781zM575 100c1 11 1 23 1 35c0 83 -18 171 -149 177c-117 -4 -198 -138 -216 -212h364z" />
    <glyph glyph-name="dad.isol" unicode="&#x636;" horiz-adv-x="1148" arabic-form="isolated" 
d="M645 100h368c0 91 -5 204 -153 212c-119 -7 -197 -135 -215 -212zM866 498c-33 0 -58 27 -58 59c0 31 25 57 58 57c31 0 58 -26 58 -57c0 -32 -27 -59 -58 -59zM885 424c163 0 223 -170 223 -296c0 -72 -19 -128 -49 -128h-432c-30 -113 -140 -202 -276 -202
c-165 0 -281 111 -281 274c0 86 35 150 106 150h36c-42 -36 -56 -104 -56 -149c0 -100 72 -174 180 -174c129 0 195 72 195 178c0 4 -1 237 -1 252h22c55 0 77 1 77 -74v-16c62 102 151 185 256 185z" />
    <glyph glyph-name="dad.fina" unicode="&#x636;" horiz-adv-x="1180" arabic-form="final" 
d="M864 499c-32 0 -56 26 -56 58s24 56 56 56c33 0 59 -24 59 -56s-26 -58 -59 -58zM1185 100h10v-99h-26c-33 0 -61 4 -87 13c-6 -8 -14 -14 -23 -14h-432c-30 -114 -140 -202 -276 -202c-165 0 -281 112 -281 275c0 86 35 149 106 149h36c-42 -36 -56 -103 -56 -148
c0 -100 72 -174 180 -174c129 0 194 72 194 178v252h22c55 0 77 0 77 -74v-17c62 103 151 185 256 185c163 0 223 -170 223 -295v-15c18 -9 43 -14 77 -14zM772 287c-64 -44 -115 -137 -127 -187h368c0 90 -5 205 -153 212c-33 -1 -61 -9 -88 -25z" />
    <glyph glyph-name="dad.init" unicode="&#x636;" horiz-adv-x="696" arabic-form="initial" 
d="M-10 0v100h86c0 20 -1 50 -1 81c0 64 1 134 1 149h23c55 0 77 1 77 -74v-16c61 101 149 185 256 185c164 0 224 -171 224 -296c0 -72 -20 -129 -50 -129h-616zM192 100h364c0 14 1 27 1 42c0 79 -23 165 -149 170c-118 -4 -198 -137 -216 -212zM412 500
c-32 0 -56 26 -56 58c0 31 24 56 56 56s58 -25 58 -56c0 -32 -26 -58 -58 -58z" />
    <glyph glyph-name="dad.medi" unicode="&#x636;" horiz-adv-x="751" arabic-form="medial" 
d="M-15 0v100h111v230h23c55 0 77 0 77 -74v-17c61 102 149 185 255 185c164 0 224 -170 224 -295v-29h91v-100h-781zM575 100c1 11 1 23 1 35c0 83 -18 171 -149 177c-117 -4 -198 -138 -216 -212h364zM434 499c-33 0 -58 26 -58 58s25 56 58 56c31 0 57 -24 57 -56
s-26 -58 -57 -58z" />
    <glyph glyph-name="tah.isol" unicode="&#x637;" horiz-adv-x="739" arabic-form="isolated" 
d="M111 100h1h-8h18c-1 61 -1 469 -1 507h21c55 0 77 -19 77 -74v-293c62 101 150 185 257 185c163 0 223 -171 223 -296c0 -72 -19 -129 -50 -129h-522c-62 2 -87 26 -87 72v28h71zM600 100c1 14 1 27 1 42c0 79 -24 165 -150 170c-118 -4 -198 -139 -216 -212h365z" />
    <glyph glyph-name="tah.fina" unicode="&#x637;" horiz-adv-x="769" arabic-form="final" 
d="M127 0c-63 3 -87 25 -87 72v28h82c0 61 -1 468 -1 507h21c56 0 77 -18 77 -74v-293c61 101 150 185 257 185c163 0 223 -171 223 -296c0 -10 -1 -20 -1 -29h86v-100h-657zM600 100c1 15 1 27 1 42c0 80 -24 165 -150 170c-119 -5 -197 -139 -216 -212h365z" />
    <glyph glyph-name="tah.init" unicode="&#x637;" horiz-adv-x="679" arabic-form="initial" 
d="M-5 0v100h67c-1 61 -1 469 -1 507h21c55 0 77 -19 77 -74v-293c62 101 150 185 257 185c163 0 223 -171 223 -296c0 -72 -19 -129 -50 -129h-594zM175 100h365c1 14 1 27 1 42c0 79 -24 165 -150 170c-117 -4 -198 -138 -216 -212z" />
    <glyph glyph-name="tah.medi" unicode="&#x637;" horiz-adv-x="737" arabic-form="medial" 
d="M-15 0v100h111c-1 62 -1 468 -1 506h22c55 0 77 -21 77 -74v-293c61 102 149 185 256 185c163 0 224 -170 224 -295c0 -9 -1 -21 -1 -29h74v-100h-762zM210 100h364c1 11 1 23 1 35c0 83 -19 171 -150 177c-116 -4 -197 -138 -215 -212z" />
    <glyph glyph-name="zah.isol" unicode="&#x638;" horiz-adv-x="739" arabic-form="isolated" 
d="M456 500c-33 0 -57 26 -57 58c0 31 24 56 57 56c31 0 57 -25 57 -56c0 -32 -26 -58 -57 -58zM111 100h1h-8h18c-1 61 -1 469 -1 507h21c55 0 77 -19 77 -74v-293c62 101 150 185 257 185c163 0 223 -171 223 -296c0 -72 -19 -129 -50 -129h-522c-62 2 -87 26 -87 72v28
h71zM600 100c1 14 1 27 1 42c0 79 -24 165 -150 170c-118 -4 -198 -139 -216 -212h365z" />
    <glyph glyph-name="zah.fina" unicode="&#x638;" horiz-adv-x="769" arabic-form="final" 
d="M458 499c-32 0 -57 26 -57 58s25 56 57 56s57 -24 57 -56s-25 -58 -57 -58zM127 0c-63 3 -87 25 -87 72v28h82c0 61 -1 468 -1 507h21c56 0 77 -18 77 -74v-293c61 101 150 185 257 185c163 0 223 -171 223 -296c0 -10 -1 -20 -1 -29h86v-100h-657zM600 100
c1 15 1 27 1 42c0 80 -24 165 -150 170c-119 -5 -197 -139 -216 -212h365z" />
    <glyph glyph-name="zah.init" unicode="&#x638;" horiz-adv-x="679" arabic-form="initial" 
d="M397 500c-32 0 -57 26 -57 58c0 31 25 56 57 56c31 0 57 -25 57 -56c0 -32 -26 -58 -57 -58zM-5 0v100h67c-1 61 -1 469 -1 507h21c55 0 77 -19 77 -74v-293c62 101 150 185 257 185c163 0 223 -171 223 -296c0 -72 -19 -129 -50 -129h-594zM175 100h365c1 14 1 27 1 42
c0 79 -24 165 -150 170c-117 -4 -198 -138 -216 -212z" />
    <glyph glyph-name="zah.medi" unicode="&#x638;" horiz-adv-x="737" arabic-form="medial" 
d="M-15 0v100h111c-1 62 -1 468 -1 506h22c55 0 77 -21 77 -74v-293c61 102 149 185 256 185c163 0 224 -170 224 -295c0 -9 -1 -21 -1 -29h74v-100h-762zM210 100h364c1 11 1 23 1 35c0 83 -19 171 -150 177c-116 -4 -197 -138 -215 -212zM431 500c-32 0 -56 26 -56 58
s24 56 56 56s59 -24 59 -56s-27 -58 -59 -58z" />
    <glyph glyph-name="ain.isol" unicode="&#x639;" horiz-adv-x="532" arabic-form="isolated" 
d="M263 100h239v-45c0 -25 -23 -55 -58 -55h-166c-97 -7 -114 -54 -114 -101c0 -20 -10 -155 149 -155c55 0 114 22 146 51v-34c0 -73 -86 -103 -159 -103c-83 0 -230 64 -230 213c0 104 27 166 90 199c-7 9 -13 19 -18 28l-1 1c-17 31 -25 68 -25 107c0 121 70 220 201 220
c4 0 8 0 13 -1c2 0 133 -1 153 -118c0 -15 -3 -30 -10 -46l-15 -35c-31 100 -115 116 -150 116c-61 0 -92 -52 -92 -123c0 -58 14 -99 47 -119z" />
    <glyph glyph-name="ain.fina" unicode="&#x639;" horiz-adv-x="626" arabic-form="final" 
d="M588 100h53v-100h-57c-45 0 -154 -4 -234 54c-9 -9 -29 -18 -53 -29s-133 -18 -133 -130c0 -23 -10 -140 149 -140c55 0 115 22 146 52v-35c0 -73 -85 -102 -159 -102c-83 0 -230 49 -230 197c0 115 37 187 113 220c0 1 76 20 92 30c-47 65 -113 109 -158 120
c0 23 5 55 5 86c26 10 77 42 121 65c3 7 71 34 116 34c116 0 185 -76 231 -100c-21 -51 -82 -147 -152 -205c23 -15 48 -18 69 -18c65 0 65 1 81 1zM365 171c45 38 79 77 119 133c-43 22 -81 30 -114 30c-78 0 -129 -44 -148 -53c53 -26 94 -82 143 -110z" />
    <glyph glyph-name="ain.init" unicode="&#x639;" horiz-adv-x="518" arabic-form="initial" 
d="M222 100h256v-45c0 -25 -23 -55 -58 -55h-430v100h111c-17 31 -25 67 -25 106c0 121 70 220 201 220c69 0 151 -35 166 -119c0 -15 -3 -30 -10 -46l-15 -35c-31 100 -115 116 -150 116c-61 0 -92 -52 -92 -123c0 -57 14 -97 46 -119z" />
    <glyph glyph-name="ain.medi" unicode="&#x639;" horiz-adv-x="557" arabic-form="medial" 
d="M519 100h43v-100h-47c-45 0 -154 -5 -234 54c-22 -19 -95 -54 -174 -54h-112v100h140c30 0 57 3 71 16c-47 65 -113 110 -158 121c0 16 5 58 5 85c26 11 77 42 121 66c3 7 72 33 116 33c116 0 185 -75 231 -100c-21 -51 -82 -147 -152 -205c23 -14 47 -17 68 -17
c66 0 66 1 82 1zM153 280c53 -26 94 -81 143 -109c45 37 79 76 119 132c-43 22 -81 30 -114 30c-78 0 -129 -44 -148 -53z" />
    <glyph glyph-name="ghain.isol" unicode="&#x63a;" horiz-adv-x="532" arabic-form="isolated" 
d="M263 100h239v-45c0 -25 -23 -55 -58 -55h-166c-97 -7 -114 -54 -114 -101c0 -20 -10 -155 149 -155c55 0 114 22 146 51v-34c0 -73 -86 -103 -159 -103c-83 0 -230 64 -230 213c0 104 27 166 90 199c-7 9 -13 19 -18 28l-1 1c-17 31 -25 68 -25 107c0 121 70 220 201 220
c4 0 8 0 13 -1c2 0 133 -1 153 -118c0 -15 -3 -30 -10 -46l-15 -35c-31 100 -115 116 -150 116c-61 0 -92 -52 -92 -123c0 -58 14 -99 47 -119zM312 500c-33 0 -57 26 -57 58s24 56 57 56c32 0 57 -24 57 -56s-25 -58 -57 -58z" />
    <glyph glyph-name="ghain.fina" unicode="&#x63a;" horiz-adv-x="626" arabic-form="final" 
d="M588 100h53v-100h-57c-45 0 -154 -4 -234 54c-9 -9 -29 -18 -53 -29s-133 -18 -133 -130c0 -23 -10 -140 149 -140c55 0 115 22 146 52v-35c0 -73 -85 -102 -159 -102c-83 0 -230 49 -230 197c0 115 37 187 113 220c0 1 76 20 92 30c-47 65 -113 109 -158 120
c0 23 5 55 5 86c26 10 77 42 121 65c3 7 71 34 116 34c116 0 185 -76 231 -100c-21 -51 -82 -147 -152 -205c23 -15 48 -18 69 -18c65 0 65 1 81 1zM365 171c45 38 79 77 119 133c-43 22 -81 30 -114 30c-78 0 -129 -44 -148 -53c53 -26 94 -82 143 -110zM358 500
c-33 0 -57 26 -57 58s24 56 57 56c32 0 57 -24 57 -56s-25 -58 -57 -58z" />
    <glyph glyph-name="ghain.init" unicode="&#x63a;" horiz-adv-x="518" arabic-form="initial" 
d="M272 500c-33 0 -57 26 -57 58s24 56 57 56c32 0 57 -24 57 -56s-25 -58 -57 -58zM222 100h256v-45c0 -25 -23 -55 -58 -55h-430v100h111c-17 31 -25 67 -25 106c0 121 70 220 201 220c69 0 151 -35 166 -119c0 -15 -3 -30 -10 -46l-15 -35c-31 100 -115 116 -150 116
c-61 0 -92 -52 -92 -123c0 -57 14 -97 46 -119z" />
    <glyph glyph-name="ghain.medi" unicode="&#x63a;" horiz-adv-x="557" arabic-form="medial" 
d="M292 500c-33 0 -57 26 -57 58s24 56 57 56c32 0 57 -24 57 -56s-25 -58 -57 -58zM519 100h43v-100h-47c-45 0 -154 -5 -234 54c-22 -19 -95 -54 -174 -54h-112v100h140c30 0 57 3 71 16c-47 65 -113 110 -158 121c0 16 5 58 5 85c26 11 77 42 121 66c3 7 72 33 116 33
c116 0 185 -75 231 -100c-21 -51 -82 -147 -152 -205c23 -14 47 -17 68 -17c66 0 66 1 82 1zM153 280c53 -26 94 -81 143 -109c45 37 79 76 119 132c-43 22 -81 30 -114 30c-78 0 -129 -44 -148 -53z" />
    <glyph glyph-name="feh.isol" unicode="&#x641;" horiz-adv-x="864" arabic-form="isolated" 
d="M626 500c-32 0 -57 25 -57 57s25 58 57 58c33 0 58 -25 58 -57c0 -33 -25 -58 -58 -58zM824 187v-187h-181h-377c-186 0 -196 161 -196 221c0 94 28 165 107 165h36c-42 -36 -57 -104 -57 -149c0 -39 2 -137 98 -137h201c-18 27 -29 62 -29 106c0 121 70 220 201 220
c122 0 197 -103 197 -239zM618 342c-62 0 -93 -51 -93 -123c0 -136 124 -116 198 -119c0 23 1 49 1 75c0 84 -11 167 -106 167z" />
    <glyph glyph-name="feh.fina" unicode="&#x641;" horiz-adv-x="904" arabic-form="final" 
d="M626 499c-32 0 -57 25 -57 57s25 58 57 58c33 0 58 -25 58 -57c0 -33 -25 -58 -58 -58zM899 100h20v-100h-35c-53 0 -100 14 -119 34c-1 -2 -1 -3 -1 -3v2c-31 -22 -71 -33 -121 -33h-377c-186 0 -196 161 -196 221c0 94 28 165 107 165h36c-42 -36 -57 -104 -57 -149
c0 -39 2 -137 98 -137h200c-17 27 -28 62 -28 106c0 121 70 220 201 220c121 0 199 -103 197 -239l-1 -69c15 -15 42 -18 76 -18zM618 342c-62 0 -93 -51 -93 -123c0 -136 124 -116 198 -119c0 23 1 49 1 75c0 84 -11 167 -106 167z" />
    <glyph glyph-name="feh.init" unicode="&#x641;" horiz-adv-x="509" arabic-form="initial" 
d="M271 500c-32 0 -57 25 -57 57s25 58 57 58c33 0 58 -25 58 -57c0 -33 -25 -58 -58 -58zM430 341c29 -45 39 -101 39 -154v-187h-118h-356v100h102c-17 27 -26 62 -26 106c0 121 70 220 201 220c63 0 124 -27 158 -85zM368 100c0 23 1 49 1 75c0 84 -11 167 -106 167
c-62 0 -93 -51 -93 -123c0 -136 124 -116 198 -119z" />
    <glyph glyph-name="feh.medi" unicode="&#x641;" horiz-adv-x="552" arabic-form="medial" 
d="M271 499c-32 0 -57 25 -57 57s25 58 57 58c33 0 58 -25 58 -57c0 -33 -25 -58 -58 -58zM469 100h88v-100h-562v100h102c-17 27 -26 62 -26 106c0 121 70 220 201 220c122 0 197 -103 197 -239v-87zM263 342c-62 0 -93 -51 -93 -123c0 -136 124 -116 198 -119
c0 23 1 49 1 75c0 84 -11 167 -106 167z" />
    <glyph glyph-name="qaf.isol" unicode="&#x642;" horiz-adv-x="658" arabic-form="isolated" 
d="M628 184c-1 -86 16 -375 -275 -375c-158 0 -283 110 -283 293c0 98 54 141 102 141h32c-29 -37 -44 -98 -44 -154c0 -103 75 -176 178 -176c92 0 147 36 170 87c-120 3 -278 26 -278 202c0 122 70 220 201 220c134 0 192 -109 197 -238zM329 216
c0 -127 133 -114 199 -116c0 22 1 47 1 71c0 84 -11 167 -107 167c-62 0 -93 -51 -93 -122zM500 500c-32 0 -58 25 -58 57c0 31 26 57 58 57c31 0 57 -26 57 -57c0 -32 -26 -57 -57 -57zM365 500c-31 0 -57 25 -57 57c0 31 26 57 57 57c32 0 58 -26 58 -57
c0 -32 -26 -57 -58 -57z" />
    <glyph glyph-name="qaf.fina" unicode="&#x642;" horiz-adv-x="703" arabic-form="final" 
d="M500 501c-32 0 -58 25 -58 57c0 31 26 57 58 57c31 0 57 -26 57 -57c0 -32 -26 -57 -57 -57zM365 501c-31 0 -57 25 -57 57c0 31 26 57 57 57c32 0 58 -26 58 -57c0 -32 -26 -57 -58 -57zM713 100v-100h-96c-31 -101 -128 -189 -264 -189c-158 0 -283 111 -283 293
c0 98 54 142 102 142h32c-29 -38 -44 -99 -44 -155c0 -102 75 -176 178 -176c92 0 147 34 170 85c-120 4 -278 29 -278 205c0 121 70 220 201 220c142 0 198 -124 197 -239l-1 -86h86zM329 218c0 -108 79 -119 148 -119c18 0 36 1 51 1c0 22 1 47 1 72
c0 84 -11 169 -107 169c-62 0 -93 -51 -93 -123z" />
    <glyph glyph-name="qaf.init" unicode="&#x642;" horiz-adv-x="509" arabic-form="initial" 
d="M430 341c29 -45 39 -101 39 -154v-187h-118h-356v100h102c-17 27 -26 62 -26 106c0 121 70 220 201 220c63 0 124 -27 158 -85zM368 100c0 23 1 49 1 75c0 84 -11 167 -106 167c-62 0 -93 -51 -93 -123c0 -136 124 -116 198 -119zM206 501c-32 0 -58 25 -58 57
s26 57 58 57s57 -25 57 -57s-25 -57 -57 -57zM341 501c-33 0 -58 25 -58 57s25 57 58 57c30 0 57 -25 57 -57s-27 -57 -57 -57z" />
    <glyph glyph-name="qaf.medi" unicode="&#x642;" horiz-adv-x="552" arabic-form="medial" 
d="M207 501c-32 0 -58 25 -58 57s26 57 58 57s57 -25 57 -57s-25 -57 -57 -57zM342 501c-33 0 -58 25 -58 57s25 57 58 57c30 0 57 -25 57 -57s-27 -57 -57 -57zM469 100h88v-100h-562v100h102c-17 27 -26 62 -26 106c0 121 70 220 201 220c122 0 197 -103 197 -239v-87z
M263 342c-62 0 -93 -51 -93 -123c0 -136 124 -116 198 -119c0 23 1 49 1 75c0 84 -11 167 -106 167z" />
    <glyph glyph-name="kaf.isol" unicode="&#x643;" horiz-adv-x="759" arabic-form="isolated" 
d="M651 606c52 0 78 -27 78 -79v-357c0 -94 -55 -166 -173 -170h-291c-186 0 -195 161 -195 221c0 93 28 165 107 165h36c-43 -36 -57 -104 -57 -149c0 -39 2 -137 97 -137h297c47 5 65 30 65 75v431h36zM397 355h87v-20c0 -11 -9 -23 -25 -23h-121c-15 0 -24 12 -24 23v20
h33c-4 9 -4 19 -4 30c0 42 25 76 70 76c26 0 53 -12 60 -44c0 -17 -10 -30 -15 -44c-12 43 -37 50 -48 50c-17 0 -23 -15 -23 -35c0 -15 1 -27 10 -33z" />
    <glyph glyph-name="kaf.fina" unicode="&#x643;" horiz-adv-x="836" arabic-form="final" 
d="M846 100h10v-100h-26c-62 0 -111 15 -147 47c-29 -28 -71 -45 -127 -47h-291c-187 0 -195 162 -195 221c0 93 27 165 106 165h36c-42 -36 -56 -104 -56 -149c0 -39 1 -137 97 -137h298c45 5 64 30 64 75v431h36c52 0 78 -27 78 -79v-330c6 -71 34 -97 117 -97zM397 355
h87v-20c0 -11 -9 -23 -25 -23h-121c-15 0 -24 12 -24 23v20h33c-4 9 -4 19 -4 30c0 42 25 76 70 76c26 0 53 -12 60 -44c0 -17 -10 -30 -15 -44c-12 43 -37 50 -48 50c-17 0 -23 -15 -23 -35c0 -15 1 -27 10 -33z" />
    <glyph glyph-name="kaf.init" unicode="&#x643;" horiz-adv-x="513" arabic-form="initial" 
d="M473 674c7 -8 10 -21 10 -34s-5 -29 -17 -38l-273 -205c11 0 23 -3 36 -6c-1 0 65 -14 107 -65c14 -17 81 -95 81 -226v-100h-427v100h323c0 127 -86 182 -89 184c-34 21 -65 30 -100 30c-15 0 -30 -1 -49 -4h1l-23 30c-8 10 -13 22 -13 35c0 16 8 36 28 51l378 283z" />
    <glyph glyph-name="kaf.medi" unicode="&#x643;" horiz-adv-x="492" arabic-form="medial" 
d="M436 709l27 -35c6 -8 10 -21 10 -34c0 -14 -5 -29 -17 -38c-91 -69 -182 -136 -273 -205c11 0 23 -3 36 -6c8 0 188 -48 188 -291h95v-100h-512v100h313c0 127 -86 182 -89 184c-34 21 -64 30 -99 30c-15 0 -31 -1 -49 -4c-15 20 -36 39 -36 65c0 16 8 36 28 51
c125 94 252 189 378 283z" />
    <glyph glyph-name="lam.isol" unicode="&#x644;" horiz-adv-x="668" arabic-form="isolated" 
d="M539 603c52 0 78 -28 78 -79v-366c0 -91 -17 -351 -295 -351c-165 0 -282 135 -282 299c0 86 35 150 106 150h36c-42 -37 -56 -104 -56 -149c0 -100 72 -197 180 -197c117 0 196 62 196 275v418h37z" />
    <glyph glyph-name="lam.fina" unicode="&#x644;" horiz-adv-x="705" arabic-form="final" 
d="M539 603c52 0 78 -28 78 -79v-339c0 -10 1 -34 -1 -64c18 -14 46 -21 89 -21h10v-100h-26c-26 0 -60 1 -89 17c-28 -101 -98 -210 -278 -210c-165 0 -282 135 -282 299c0 86 35 150 106 150h36c-42 -37 -56 -104 -56 -149c0 -100 72 -197 180 -197c117 0 196 62 196 275
v418h37z" />
    <glyph glyph-name="lam.init" unicode="&#x644;" horiz-adv-x="247" arabic-form="initial" 
d="M118 604c52 0 79 -26 79 -78v-356c0 -94 -56 -166 -171 -170h-36v100h27c47 4 64 30 64 75v429h37z" />
    <glyph glyph-name="lam.medi" unicode="&#x644;" horiz-adv-x="274" arabic-form="medial" 
d="M284 100h10v-100h-26c-62 0 -95 16 -130 47c-36 -34 -84 -47 -158 -47v100h24c47 5 65 30 65 76v429h36c52 0 78 -27 78 -78v-326c5 -73 16 -101 101 -101z" />
    <glyph glyph-name="meem.isol" unicode="&#x645;" horiz-adv-x="665" arabic-form="isolated" 
d="M432 426c122 0 193 -99 193 -207c0 -122 -71 -219 -202 -219c-31 0 -65 7 -93 23c-24 -37 -49 -140 -168 -140l-11 1c-56 1 -81 25 -81 71v28h71c80 0 94 60 94 124c0 35 -4 71 -4 99c0 121 70 220 201 220zM432 84c63 0 93 51 93 122c0 85 -32 136 -102 136
c-62 0 -93 -51 -93 -123c0 -84 31 -135 102 -135z" />
    <glyph glyph-name="meem.fina" unicode="&#x645;" horiz-adv-x="688" arabic-form="final" 
d="M670 100h33v-100h-24c-49 0 -92 14 -119 50c-34 -31 -79 -50 -137 -50c-35 0 -66 8 -93 23c-23 -37 -49 -140 -168 -140l-11 1c-55 1 -81 25 -81 71v28h71c80 0 94 60 94 124c0 35 -4 71 -4 99c0 121 70 220 201 220c122 0 193 -99 193 -207c0 -37 -6 -71 -19 -101
c13 -17 36 -18 64 -18zM432 84c63 0 93 51 93 122c0 85 -32 136 -102 136c-62 0 -93 -51 -93 -123c0 -84 31 -135 102 -135z" />
    <glyph glyph-name="meem.init" unicode="&#x645;" horiz-adv-x="532" arabic-form="initial" 
d="M-30 100h10c92 0 116 33 118 122c0 106 74 203 193 203c130 0 201 -98 201 -219c0 -108 -71 -205 -192 -205c-60 0 -109 22 -145 58c-36 -39 -89 -59 -159 -59h-26v100zM291 85c71 0 101 50 101 134c0 71 -31 122 -92 122c-71 0 -102 -51 -102 -135
c0 -71 31 -121 93 -121z" />
    <glyph glyph-name="meem.medi" unicode="&#x645;" horiz-adv-x="598" arabic-form="medial" 
d="M608 100h10v-100h-26c-68 0 -120 18 -156 56c-33 -34 -79 -56 -136 -56c-60 0 -110 22 -145 58c-37 -39 -90 -58 -159 -58h-26v100h10c92 0 116 32 118 121c0 106 73 203 193 203c130 0 201 -98 201 -219c0 -76 32 -105 116 -105zM291 84c71 0 101 50 101 134
c0 72 -31 122 -92 122c-71 0 -103 -50 -103 -135c0 -71 31 -121 94 -121z" />
    <glyph glyph-name="noon.isol" unicode="&#x646;" horiz-adv-x="668" arabic-form="isolated" 
d="M539 342c52 0 78 -28 78 -79v-105c0 -91 -17 -351 -295 -351c-165 0 -282 135 -282 299c0 86 35 150 106 150h36c-42 -37 -56 -104 -56 -149c0 -100 72 -197 180 -197c117 0 196 62 196 275v157h37zM333 351c-32 0 -57 26 -57 58c0 33 25 58 57 58c33 0 59 -25 59 -58
c0 -32 -26 -58 -59 -58z" />
    <glyph glyph-name="noon.fina" unicode="&#x646;" horiz-adv-x="705" arabic-form="final" 
d="M539 342c52 0 78 -28 78 -79v-78c0 -10 1 -34 -1 -64c18 -14 46 -21 89 -21h10v-100h-26c-26 0 -60 1 -89 17c-28 -101 -98 -210 -278 -210c-165 0 -282 135 -282 299c0 86 35 150 106 150h36c-42 -37 -56 -104 -56 -149c0 -100 72 -197 180 -197c117 0 196 62 196 275
v157h37zM333 351c-32 0 -57 26 -57 58c0 33 25 58 57 58c33 0 59 -25 59 -58c0 -32 -26 -58 -59 -58z" />
    <glyph glyph-name="noon.init" unicode="&#x646;" horiz-adv-x="306" arabic-form="initial" 
d="M242 462c0 -32 -27 -58 -57 -58c-32 0 -57 26 -57 58s25 57 57 57c31 0 57 -25 57 -57zM169 341c51 0 77 -27 77 -79v-92c0 -93 -55 -166 -169 -170h-92v100h83c46 5 64 30 64 76v165h37z" />
    <glyph glyph-name="noon.medi" unicode="&#x646;" horiz-adv-x="297" arabic-form="medial" 
d="M207 462c0 -32 -30 -58 -57 -58c-31 0 -57 26 -57 58s24 57 57 57c31 0 57 -25 57 -57zM207 201c4 -70 30 -99 105 -101v-100h-4c-62 0 -111 16 -146 47c-29 -28 -70 -45 -125 -47h-52v100h43c47 4 65 29 65 75v165h36c52 0 78 -26 78 -78v-61z" />
    <glyph glyph-name="heh.isol" unicode="&#x647;" horiz-adv-x="504" arabic-form="isolated" 
d="M271 425c122 0 193 -99 193 -207c0 -122 -71 -219 -202 -219c-122 0 -192 97 -192 206c0 121 70 220 201 220zM262 341c-62 0 -93 -51 -93 -123c0 -84 31 -135 102 -135c63 0 93 51 93 122c0 85 -32 136 -102 136z" />
    <glyph glyph-name="heh.fina" unicode="&#x647;" horiz-adv-x="571" arabic-form="final" 
d="M514 100h71v-100c6 -1 -170 2 -231 -1c-122 3 -284 27 -284 206c0 121 70 220 201 220c27 0 51 -5 73 -14v1c88 -35 125 -132 124 -226l-1 -86h47zM169 218c0 -132 133 -116 199 -118c0 22 1 47 1 72c0 84 -11 169 -107 169c-62 0 -93 -51 -93 -123z" />
    <glyph glyph-name="heh.init" unicode="&#x647;" horiz-adv-x="581" arabic-form="initial" 
d="M136 0h-4h-142v100h118c-32 36 -41 72 -41 102c0 93 66 143 147 143c109 0 150 -92 149 -180l-1 -65h72c4 17 6 41 6 62c0 108 -53 248 -216 248c-57 0 -96 -15 -140 -56v39c0 66 18 117 162 117c224 0 295 -191 295 -361c0 -16 -1 -95 -23 -149c-100 0 -147 -1 -184 28
c-35 -18 -69 -28 -198 -28zM147 189c0 -6 -1 -89 133 -89c0 67 8 171 -71 171c-41 0 -62 -34 -62 -82z" />
    <glyph glyph-name="heh.medi" unicode="&#x647;" horiz-adv-x="615" arabic-form="medial" 
d="M539 100h86v-100h-169h-20c-45 0 -81 12 -102 27c-35 -18 -69 -27 -198 -27h-146v100h118c-32 36 -41 72 -41 102c0 93 65 142 147 142c109 0 150 -92 149 -180l-1 -64h72c4 18 6 40 6 62c0 108 -53 248 -216 248c-57 0 -96 -15 -140 -56v39c0 66 18 117 162 117
c224 0 295 -191 295 -361c0 -7 -1 -26 -2 -49zM280 100c0 65 9 170 -71 170c-41 0 -62 -34 -62 -82c0 -5 0 -88 133 -88z" />
    <glyph glyph-name="waw.isol" unicode="&#x648;" horiz-adv-x="478" arabic-form="isolated" 
d="M429 266c5 -25 9 -52 9 -79l-2 -157c-1 -72 -58 -205 -263 -205c-43 0 -70 21 -70 48v37c135 3 196 44 221 90c-122 2 -284 27 -284 206c0 121 70 220 201 220c27 0 51 -5 73 -14v1c64 -25 104 -85 115 -147zM139 219c0 -108 73 -120 138 -120c22 0 44 1 61 1
c-4 98 11 242 -106 242c-62 0 -93 -52 -93 -123z" />
    <glyph glyph-name="waw.fina" unicode="&#x648;" horiz-adv-x="529" arabic-form="final" 
d="M544 100v-100h-113c-17 -74 -84 -170 -258 -170c-43 0 -70 21 -70 48v36c135 4 196 39 221 86c-122 2 -284 32 -284 210c0 122 70 220 201 220c152 0 195 -130 197 -238l-1 -92h107zM338 100c-5 101 18 246 -106 246c-62 0 -93 -51 -93 -122c0 -113 81 -125 148 -125
c19 0 37 1 51 1z" />
    <glyph glyph-name="alefmaksura.isol" unicode="&#x649;" horiz-adv-x="908" arabic-form="isolated" 
d="M342 -158c-180 0 -272 92 -272 261c0 103 46 169 121 169l52 -5s-80 -38 -80 -156c0 -93 14 -174 187 -174c210 0 -61 488 400 488h93v-373c0 -31 -26 -52 -51 -52h-49v322c-169 -2 -186 -109 -197 -238c-8 -121 -21 -242 -204 -242z" />
    <glyph glyph-name="alefmaksura.fina" unicode="&#x649;" horiz-adv-x="923" arabic-form="final" 
d="M743 0v322c-169 -2 -186 -109 -197 -238c-10 -141 -38 -242 -204 -242c-180 0 -272 92 -272 261c0 103 46 169 121 169l52 -5s-80 -38 -80 -156c0 -94 14 -172 185 -174h2c154 0 53 235 148 383c45 71 127 105 252 105h93v-325h90v-100h-190z" />
    <glyph glyph-name="yeh.isol" unicode="&#x64a;" horiz-adv-x="908" arabic-form="isolated" 
d="M241 -324c-32 0 -57 26 -57 58s25 56 57 56c31 0 58 -24 58 -56s-27 -58 -58 -58zM371 -324c-32 0 -58 26 -58 58s26 56 58 56s58 -24 58 -56s-26 -58 -58 -58zM342 -158c-180 0 -272 92 -272 261c0 103 46 169 121 169l52 -5s-80 -38 -80 -156c0 -93 14 -174 187 -174
c210 0 -61 488 400 488h93v-373c0 -31 -26 -52 -51 -52h-49v322c-169 -2 -186 -109 -197 -238c-8 -121 -21 -242 -204 -242z" />
    <glyph glyph-name="yeh.fina" unicode="&#x64a;" horiz-adv-x="923" arabic-form="final" 
d="M743 0v322c-169 -2 -186 -109 -197 -238c-10 -141 -38 -242 -204 -242c-180 0 -272 92 -272 261c0 103 46 169 121 169l52 -5s-80 -38 -80 -156c0 -94 14 -172 185 -174h2c154 0 53 235 148 383c45 71 127 105 252 105h93v-325h90v-100h-190zM241 -324
c-32 0 -57 26 -57 58s25 56 57 56c31 0 58 -24 58 -56s-27 -58 -58 -58zM371 -324c-32 0 -58 26 -58 58s26 56 58 56s58 -24 58 -56s-26 -58 -58 -58z" />
    <glyph glyph-name="yeh.init" unicode="&#x64a;" horiz-adv-x="291" arabic-form="initial" 
d="M174 341c51 0 77 -27 77 -79v-92c0 -93 -55 -166 -169 -170h-102v100h93c46 5 64 30 64 76v165h37zM75 -176c-32 0 -58 26 -58 58s26 57 58 57c31 0 57 -25 57 -57s-26 -58 -57 -58zM205 -176c-31 0 -57 26 -57 58s26 57 57 57c32 0 59 -25 59 -57s-27 -58 -59 -58z" />
    <glyph glyph-name="yeh.medi" unicode="&#x64a;" horiz-adv-x="297" arabic-form="medial" 
d="M58 -175c-32 0 -58 25 -58 58c0 31 26 57 58 57c31 0 57 -26 57 -57c0 -33 -26 -58 -57 -58zM187 -175c-31 0 -57 25 -57 58c0 31 26 57 57 57s59 -26 59 -57c0 -33 -28 -58 -59 -58zM207 201c4 -70 30 -101 105 -101v-100h-4c-62 0 -111 16 -146 47
c-29 -28 -70 -45 -125 -47h-52v100h43c47 4 65 29 65 75v165h36c52 0 78 -26 78 -78v-61z" />
    <glyph glyph-name="fathatan" unicode="&#xfe70;" arabic-form="isolated" 
d="M25 -75c-43 -3 -103 -6 -149 -8c-13 -1 -13 16 -13 24c55 3 97 5 145 8c9 1 16 -8 17 -24zM33 -118c-43 -3 -103 -6 -149 -8c-13 -1 -13 16 -13 24c55 3 97 5 145 8c9 1 16 -8 17 -24z" />
    <glyph glyph-name="dammatan" unicode="&#xfe72;" arabic-form="isolated" 
d="M11 25c32 0 57 -25 57 -59c0 -87 -148 -92 -182 -92c-19 0 -20 3 -21 19l8 1c14 8 22 25 22 44c0 22 -13 36 -36 36c-14 0 -23 -7 -27 -13c-2 4 -4 8 -4 12c0 10 12 22 35 22c38 0 58 -28 58 -57c0 -13 -5 -26 -15 -42c27 2 57 6 75 11c-18 14 -29 33 -29 53
c0 36 26 65 59 65zM9 -79c23 0 33 20 33 42c0 25 -14 41 -34 41c-21 0 -32 -17 -32 -39c0 -24 14 -44 33 -44z" />
    <glyph glyph-name="kasratan" unicode="&#xfe74;" arabic-form="isolated" 
d="M21 -24c-43 -3 -103 -6 -149 -8c-13 -1 -13 16 -13 24c55 3 97 5 145 8c9 1 16 -8 17 -24zM29 -67c-43 -3 -103 -6 -149 -8c-13 -1 -13 16 -13 24c55 3 97 5 145 8c9 1 16 -8 17 -24z" />
    <glyph glyph-name="fatha" unicode="&#xfe76;" arabic-form="isolated" 
d="M23 -118c-43 -3 -103 -6 -149 -8c-13 -1 -13 16 -13 24c55 3 97 5 145 8c9 1 16 -8 17 -24z" />
    <glyph glyph-name="damma" unicode="&#xfe78;" arabic-form="isolated" 
d="M13 -80c22 1 29 18 29 42c0 27 -15 43 -35 43s-30 -19 -30 -41c0 -27 15 -44 36 -44zM9 24c31 0 58 -21 58 -56c0 -102 -179 -92 -186 -94c-14 0 -15 6 -16 18l19 1c26 1 73 6 95 14c-17 13 -26 32 -26 52c0 37 24 65 56 65z" />
    <glyph glyph-name="kasra" unicode="&#xfe7a;" arabic-form="isolated" 
d="M19 -24c-43 -3 -103 -6 -149 -8c-13 -1 -13 16 -13 24c55 3 97 5 145 8c9 1 16 -8 17 -24z" />
    <glyph glyph-name="shadda" unicode="&#xfe7c;" arabic-form="isolated" 
d="M-130 1l6 -72c2 -20 12 -34 30 -34c10 0 22 7 22 25c0 15 -2 36 -4 56c-2 18 3 22 24 22l6 -73c1 -19 10 -31 28 -31c16 0 24 13 23 34l-3 49c-1 9 -1 19 12 20h10l5 -78c1 -20 -10 -45 -43 -45c-12 0 -25 2 -43 18c-8 -11 -22 -17 -37 -17c-35 0 -51 26 -54 56
c-5 50 -4 51 -4 53c0 11 8 15 22 17z" />
    <glyph glyph-name="sukun" unicode="&#xfe7e;" arabic-form="isolated" 
d="M-46 54c47 0 68 -38 68 -73c0 -43 -35 -77 -75 -77c-45 0 -65 41 -65 75c0 46 32 75 72 75zM-44 29c-29 0 -43 -25 -43 -54s14 -46 39 -46c26 0 37 27 37 57c0 25 -12 39 -33 43z" />
    <glyph glyph-name="alef_wasla.isol" unicode="&#x671;" horiz-adv-x="260" arabic-form="isolated" 
d="M194 0h-45c-35 0 -70 24 -70 77v528h51c29 0 64 -23 64 -57v-548zM43 671h-3h6v82h7c17 0 24 -5 24 -22v-14c20 32 48 58 83 58c53 0 71 -55 71 -94c0 -24 -6 -41 -17 -41h-167c-19 0 -27 8 -27 22v9h23zM200 671c0 27 1 68 -48 68c-39 0 -63 -44 -69 -68h117z" />
    <glyph glyph-name="alef_wasla.fina" unicode="&#x671;" horiz-adv-x="278" arabic-form="final" 
d="M256 100h32v-100c-144 0 -211 59 -211 170v435h51c30 0 64 -24 64 -58v-389c4 -34 24 -54 64 -58zM43 671h-3h6v82h7c17 0 24 -5 24 -22v-14c20 32 48 58 83 58c53 0 71 -55 71 -94c0 -24 -6 -41 -17 -41h-167c-19 0 -27 8 -27 22v9h23zM200 671c0 27 1 68 -48 68
c-39 0 -63 -44 -69 -68h117z" />
    <glyph glyph-name="tteh.isol" unicode="&#x679;" horiz-adv-x="796" arabic-form="isolated" 
d="M677 341c52 0 79 -27 79 -79v-92c0 -94 -56 -167 -171 -170h-319c-186 0 -196 160 -196 221c0 94 28 165 107 165h36c-42 -36 -57 -104 -57 -149c0 -39 2 -137 98 -137h322c47 4 64 30 64 76v165h37zM334 444h-3c1 -2 1 -3 2 -3c4 0 5 42 5 83c0 38 -1 76 -1 82h7
c17 0 24 -5 24 -22v-94c20 32 48 58 83 58c53 0 71 -55 71 -94c0 -24 -6 -41 -17 -41h-167c-19 0 -27 8 -27 22v9h23zM491 444c0 27 1 68 -48 68c-39 0 -63 -44 -69 -68h117z" />
    <glyph glyph-name="uniFB67" unicode="&#x679;" horiz-adv-x="857" arabic-form="final" 
d="M872 100h10v-100h-26c-63 0 -112 16 -147 47c-29 -28 -69 -45 -124 -47h-320c-185 0 -195 160 -195 221c0 93 28 165 107 165h36c-42 -36 -57 -104 -57 -149c0 -39 2 -137 97 -137h323c47 4 64 30 64 75v166h37c51 0 78 -27 78 -79v-63c5 -72 33 -99 117 -99zM344 444h-3
c1 -2 1 -3 2 -3c4 0 5 42 5 83c0 38 -1 76 -1 82h7c17 0 24 -5 24 -22v-94c20 32 48 58 83 58c53 0 71 -55 71 -94c0 -24 -6 -41 -17 -41h-167c-19 0 -27 8 -27 22v9h23zM501 444c0 27 1 68 -48 68c-39 0 -63 -44 -69 -68h117z" />
    <glyph glyph-name="uniFB68" unicode="&#x679;" horiz-adv-x="286" arabic-form="initial" 
d="M169 341c51 0 77 -27 77 -79v-92c0 -93 -55 -166 -169 -170h-92v100h83c46 5 64 30 64 76v165h37zM107 425h-3c7 -10 7 39 7 80c0 38 -1 76 -1 82h7c17 0 24 -5 24 -22v-94c20 32 48 58 83 58c53 0 71 -55 71 -94c0 -24 -6 -41 -17 -41h-167c-19 0 -27 8 -27 22v9h23z
M264 425c0 27 1 68 -48 68c-39 0 -63 -44 -69 -68h117z" />
    <glyph glyph-name="uniFB69" unicode="&#x679;" horiz-adv-x="297" arabic-form="medial" 
d="M207 201c4 -70 30 -99 105 -101v-100h-4c-62 0 -111 16 -146 47c-29 -28 -70 -45 -125 -47h-52v100h43c47 4 65 29 65 75v165h36c52 0 78 -26 78 -78v-61zM68 425h-3c7 -10 7 39 7 80c0 38 -1 76 -1 82h7c17 0 24 -5 24 -22v-94c20 32 48 58 83 58c53 0 71 -55 71 -94
c0 -24 -6 -41 -17 -41h-167c-19 0 -27 8 -27 22v9h23zM225 425c0 27 1 68 -48 68c-39 0 -63 -44 -69 -68h117z" />
    <glyph glyph-name="peh.isol" unicode="&#x67e;" horiz-adv-x="796" arabic-form="isolated" 
d="M360 -50c32 0 58 -26 58 -58s-26 -58 -58 -58c-31 0 -57 26 -57 58s26 58 57 58zM494 -50c31 0 58 -26 58 -58s-27 -58 -58 -58s-57 26 -57 58s26 58 57 58zM429 -164c28 0 53 -25 53 -52c0 -29 -25 -53 -53 -53s-50 24 -50 53c0 27 22 52 50 52zM677 341
c52 0 79 -27 79 -79v-92c0 -93 -56 -165 -171 -169l-319 -1c-186 -1 -196 161 -196 221c0 94 28 165 107 165h36c-42 -36 -57 -103 -57 -148c0 -40 2 -138 98 -138h322c47 5 64 30 64 76v165h37z" />
    <glyph glyph-name="peh.fina" unicode="&#x67e;" horiz-adv-x="857" arabic-form="final" 
d="M369 -50c31 0 58 -26 58 -58s-27 -58 -58 -58c-32 0 -57 26 -57 58s25 58 57 58zM499 -50c31 0 58 -26 58 -58s-27 -58 -58 -58s-57 26 -57 58s26 58 57 58zM435 -164c28 0 52 -25 52 -52c0 -29 -24 -53 -52 -53c-27 0 -52 24 -52 53c0 27 25 52 52 52zM872 100h10v-100
h-26c-63 0 -112 17 -147 48c-29 -27 -69 -47 -124 -47l-320 -1c-185 -1 -195 161 -195 221c0 94 28 165 107 165h36c-42 -36 -57 -103 -57 -148c0 -40 2 -138 97 -138h323c47 5 64 30 64 76v165h37c51 0 78 -27 78 -79v-62c5 -72 33 -100 117 -100z" />
    <glyph glyph-name="peh.init" unicode="&#x67e;" horiz-adv-x="286" arabic-form="initial" 
d="M169 341c51 0 77 -27 77 -79v-92c0 -93 -55 -166 -169 -170h-92v100h83c46 5 64 30 64 76v165h37zM129 -161c28 0 52 -25 52 -53s-24 -52 -52 -52s-52 24 -52 52s24 53 52 53zM62 -166c-32 0 -58 28 -58 59s26 58 58 58c31 0 57 -27 57 -58s-26 -59 -57 -59zM192 -166
c-31 0 -57 28 -57 59s26 58 57 58c32 0 59 -27 59 -58s-27 -59 -59 -59z" />
    <glyph glyph-name="peh.medi" unicode="&#x67e;" horiz-adv-x="297" arabic-form="medial" 
d="M71 -50c31 0 57 -26 57 -59c0 -31 -26 -57 -57 -57c-32 0 -58 26 -58 57c0 33 26 59 58 59zM200 -50c30 0 58 -26 58 -59c0 -31 -28 -57 -58 -57c-31 0 -57 26 -57 57c0 33 26 59 57 59zM136 -164c28 0 53 -25 53 -52c0 -29 -25 -53 -53 -53c-29 0 -51 24 -51 53
c0 27 22 52 51 52zM207 201c4 -70 26 -101 105 -101v-100h-4c-62 0 -111 16 -146 47c-29 -28 -70 -45 -125 -47h-52v100h43c47 4 65 29 65 75v165h36c52 0 78 -26 78 -78v-61z" />
    <glyph glyph-name="tcheh.isol" unicode="&#x686;" horiz-adv-x="583" arabic-form="isolated" 
d="M279 -67c31 0 57 -26 57 -58c0 -31 -26 -58 -57 -58c-32 0 -58 27 -58 58c0 32 26 58 58 58zM408 -67c31 0 59 -26 59 -58c0 -31 -28 -58 -59 -58s-56 27 -56 58c0 32 25 58 56 58zM344 -180c29 0 53 -25 53 -53s-24 -53 -53 -53c-28 0 -51 25 -51 53s23 53 51 53zM352 1
c-122 0 -192 -38 -192 -163c0 -59 18 -141 114 -152l-32 -12c-13 -5 -25 -6 -37 -6c-77 0 -135 74 -135 190c0 190 114 243 288 243c25 0 51 -1 78 -3c-16 64 -64 226 -184 226c-56 0 -96 -15 -140 -56v38c0 68 17 119 162 119c196 0 269 -222 269 -392c0 -35 -3 -68 -9 -96
c-18 48 -100 64 -182 64z" />
    <glyph glyph-name="tcheh.fina" unicode="&#x686;" horiz-adv-x="619" arabic-form="final" 
d="M70 -142c0 193 123 244 273 244c29 0 60 -2 91 -5c0 71 -80 226 -183 226c-56 0 -96 -15 -139 -56v39c0 66 16 118 161 118c167 0 227 -165 254 -271c13 -38 45 -53 107 -53h10v-100h-26c-48 0 -79 11 -104 29c0 0 -30 -29 -120 -29h-51c-139 -3 -183 -64 -183 -162
c0 -59 18 -141 114 -152l-32 -12c-13 -5 -25 -6 -37 -6c-77 0 -135 74 -135 190zM269 -67c32 0 58 -26 58 -58s-26 -59 -58 -59c-31 0 -58 27 -58 59s27 58 58 58zM399 -67c31 0 58 -26 58 -58s-27 -59 -58 -59s-57 27 -57 59s26 58 57 58zM335 -181c28 0 52 -25 52 -52
c0 -29 -24 -53 -52 -53c-29 0 -52 24 -52 53c0 27 23 52 52 52z" />
    <glyph glyph-name="tcheh.init" unicode="&#x686;" horiz-adv-x="521" arabic-form="initial" 
d="M177 -49c32 0 58 -27 58 -60c0 -31 -26 -56 -58 -56s-58 25 -58 56c0 33 26 60 58 60zM306 -49c31 0 58 -27 58 -60c0 -31 -27 -56 -58 -56s-57 25 -57 56c0 33 26 60 57 60zM242 -169c32 0 58 -27 58 -57c0 -32 -26 -59 -58 -59c-31 0 -56 27 -56 59c0 30 25 57 56 57z
M-5 0v100h379c-15 64 -63 224 -184 224c-56 0 -95 -15 -139 -56v38c0 67 18 119 162 119c196 0 268 -223 268 -395c0 -34 -2 -66 -8 -94c-19 40 -85 59 -156 64h-322z" />
    <glyph glyph-name="tcheh.medi" unicode="&#x686;" horiz-adv-x="548" arabic-form="medial" 
d="M217 -50c31 0 57 -26 57 -59c0 -31 -26 -57 -57 -57s-58 26 -58 57c0 33 27 59 58 59zM346 -50c31 0 59 -26 59 -59c0 -31 -28 -57 -59 -57c-30 0 -57 26 -57 57c0 33 27 59 57 59zM283 -164c28 0 52 -25 52 -52c0 -29 -24 -53 -52 -53c-29 0 -52 24 -52 53
c0 27 23 52 52 52zM-5 0v100h374c-16 64 -63 224 -184 224c-56 0 -96 -15 -140 -56v38c0 67 18 119 163 119c173 0 246 -177 265 -325h90v-100h-568z" />
    <glyph glyph-name="ddal.isol" unicode="&#x688;" horiz-adv-x="465" arabic-form="isolated" 
d="M425 100v-100h-325c-37 0 -55 30 -55 60v40h276c0 127 -86 182 -89 184c-33 21 -65 30 -100 30c-15 0 -31 -1 -49 -4l20 32c22 35 48 55 91 55c13 0 27 -2 43 -6c2 0 65 -16 106 -65c15 -19 82 -98 82 -226zM145 508h-3c1 -2 1 -3 2 -3c4 0 5 42 5 83c0 38 -1 76 -1 82h7
c17 0 24 -5 24 -22v-94c20 32 48 58 83 58c53 0 71 -55 71 -94c0 -24 -6 -41 -17 -41h-167c-19 0 -27 8 -27 22v9h23zM302 508c0 27 1 68 -48 68c-39 0 -63 -44 -69 -68h117z" />
    <glyph glyph-name="ddal.fina" unicode="&#x688;" horiz-adv-x="538" arabic-form="final" 
d="M145 508h-3c1 -2 1 -3 2 -3c4 0 5 42 5 83c0 38 -1 76 -1 82h7c17 0 24 -5 24 -22v-94c20 32 48 58 83 58c53 0 71 -55 71 -94c0 -24 -6 -41 -17 -41h-167c-19 0 -27 8 -27 22v9h23zM302 508c0 27 1 68 -48 68c-39 0 -63 -44 -69 -68h117zM537 100h11v-100h-6
c-59 0 -90 5 -127 40c-20 -19 -42 -40 -74 -40h-236c-37 0 -55 30 -55 60v40h276c0 126 -86 182 -89 184c-33 21 -65 30 -100 30c-15 0 -31 -1 -49 -4l20 32c22 35 48 55 91 55c13 0 27 -2 43 -6c2 0 65 -16 106 -65c11 -14 50 -60 70 -134c25 -74 30 -92 119 -92z" />
    <glyph glyph-name="uni0691" unicode="&#x691;" horiz-adv-x="317" arabic-form="isolated" 
d="M112 438h-3c1 -2 1 -3 2 -3c4 0 5 42 5 83c0 38 -1 76 -1 82h7c17 0 24 -5 24 -22v-94c20 32 48 58 83 58c53 0 71 -55 71 -94c0 -24 -6 -41 -17 -41h-167c-19 0 -27 8 -27 22v9h23zM269 438c0 27 1 68 -48 68c-39 0 -63 -44 -69 -68h117zM267 -39
c0 -71 -61 -136 -145 -136c-49 0 -82 22 -82 61v42c18 -3 37 -4 40 -4c79 0 71 68 71 176v242h43c56 0 73 -23 73 -80v-301z" />
    <glyph glyph-name="uniFB8D" unicode="&#x691;" horiz-adv-x="348" arabic-form="final" 
d="M109 438h-3c1 -2 1 -3 2 -3c4 0 5 42 5 83c0 38 -1 76 -1 82h7c17 0 24 -5 24 -22v-94c20 32 48 58 83 58c53 0 71 -55 71 -94c0 -24 -6 -41 -17 -41h-167c-19 0 -27 8 -27 22v9h23zM266 438c0 27 1 68 -48 68c-39 0 -63 -44 -69 -68h117zM265 0h-8v-39
c0 -71 -56 -136 -140 -136c-49 0 -82 22 -82 61v42c18 -3 37 -4 41 -4c81 0 70 68 70 176v242h43c56 0 74 -23 74 -80v-160c6 -1 13 -2 23 -2h67v-100h-88z" />
    <glyph glyph-name="uni0698" unicode="&#x698;" horiz-adv-x="312" arabic-form="isolated" 
d="M131 399c-32 0 -58 26 -58 58s26 57 58 57c31 0 57 -25 57 -57s-26 -58 -57 -58zM260 399c-31 0 -57 26 -57 58s26 57 57 57s58 -25 58 -57s-27 -58 -58 -58zM196 517c-27 0 -51 24 -51 52c0 29 24 51 51 51c28 0 53 -22 53 -51c0 -28 -25 -52 -53 -52zM262 -39
c0 -71 -61 -136 -145 -136c-49 0 -82 22 -82 61v42c18 -3 37 -4 40 -4c79 0 71 68 71 176v242h43c56 0 73 -23 73 -80v-301z" />
    <glyph glyph-name="uniFB8B" unicode="&#x698;" horiz-adv-x="348" arabic-form="final" 
d="M194 523c-29 0 -52 24 -52 52c0 29 23 52 52 52s53 -23 53 -52c0 -28 -24 -52 -53 -52zM204 463c0 33 25 58 57 58c31 0 58 -25 58 -58c0 -32 -27 -57 -58 -57c-32 0 -57 25 -57 57zM126 406c-31 0 -57 25 -57 57c0 33 26 58 57 58c32 0 58 -25 58 -58
c0 -32 -26 -57 -58 -57zM265 0h-8v-39c0 -71 -56 -136 -140 -136c-49 0 -82 22 -82 61v42c18 -3 37 -4 41 -4c81 0 70 68 70 176v242h43c56 0 74 -23 74 -80v-160c6 -1 13 -2 23 -2h67v-100h-88z" />
    <glyph glyph-name="veh.isol" unicode="&#x6a4;" horiz-adv-x="864" arabic-form="isolated" 
d="M562 500c-31 0 -57 26 -57 58c0 30 26 58 57 58s58 -28 58 -58c0 -32 -27 -58 -58 -58zM692 500c-32 0 -57 26 -57 58c0 30 25 58 57 58c31 0 59 -28 59 -58c0 -32 -28 -58 -59 -58zM627 613c-29 0 -51 25 -51 52c0 29 22 53 51 53c28 0 53 -24 53 -53
c0 -27 -25 -52 -53 -52zM824 187v-187h-181h-377c-186 0 -196 161 -196 221c0 94 28 165 107 165h36c-42 -36 -57 -104 -57 -149c0 -39 2 -137 98 -137h201c-18 27 -29 62 -29 106c0 121 70 220 201 220c122 0 197 -103 197 -239zM618 342c-62 0 -93 -51 -93 -123
c0 -136 124 -116 198 -119c0 23 1 49 1 75c0 84 -11 167 -106 167z" />
    <glyph glyph-name="veh.fina" unicode="&#x6a4;" horiz-adv-x="904" arabic-form="final" 
d="M899 100h20v-100h-35c-53 0 -100 14 -119 34c-1 -2 -1 -3 -1 -3v2c-31 -22 -71 -33 -121 -33h-377c-186 0 -196 161 -196 221c0 94 28 165 107 165h36c-42 -36 -57 -104 -57 -149c0 -39 2 -137 98 -137h200c-17 27 -28 62 -28 106c0 121 70 220 201 220
c121 0 199 -103 197 -239l-1 -69c15 -15 42 -18 76 -18zM618 342c-62 0 -93 -51 -93 -123c0 -136 124 -116 198 -119c0 23 1 49 1 75c0 84 -11 167 -106 167zM562 500c-31 0 -58 26 -58 58c0 31 27 59 58 59s57 -28 57 -59c0 -32 -26 -58 -57 -58zM691 500
c-30 0 -57 26 -57 58c0 31 27 59 57 59c31 0 59 -28 59 -59c0 -32 -28 -58 -59 -58zM626 614c-29 0 -52 25 -52 52c0 29 23 53 52 53c27 0 52 -24 52 -53c0 -27 -25 -52 -52 -52z" />
    <glyph glyph-name="veh.init" unicode="&#x6a4;" horiz-adv-x="509" arabic-form="initial" 
d="M469 187v-187h-474v100h102c-17 27 -26 62 -26 106c0 121 70 220 201 220c122 0 197 -103 197 -239zM263 342c-62 0 -93 -51 -93 -123c0 -136 124 -116 198 -119c0 23 1 49 1 75c0 84 -11 167 -106 167zM207 500c-31 0 -58 26 -58 58c0 31 27 59 58 59s57 -28 57 -59
c0 -32 -26 -58 -57 -58zM336 500c-30 0 -57 26 -57 58c0 31 27 59 57 59c31 0 59 -28 59 -59c0 -32 -28 -58 -59 -58zM271 614c-29 0 -52 25 -52 52c0 29 23 53 52 53c27 0 52 -24 52 -53c0 -27 -25 -52 -52 -52z" />
    <glyph glyph-name="veh.medi" unicode="&#x6a4;" horiz-adv-x="552" arabic-form="medial" 
d="M469 100h88v-100h-562v100h102c-17 27 -26 62 -26 106c0 121 70 220 201 220c122 0 197 -103 197 -239v-87zM263 342c-62 0 -93 -51 -93 -123c0 -136 124 -116 198 -119c0 23 1 49 1 75c0 84 -11 167 -106 167zM207 500c-31 0 -58 26 -58 58c0 31 27 59 58 59
s57 -28 57 -59c0 -32 -26 -58 -57 -58zM336 500c-30 0 -57 26 -57 58c0 31 27 59 57 59c31 0 59 -28 59 -59c0 -32 -28 -58 -59 -58zM271 614c-29 0 -52 25 -52 52c0 29 23 53 52 53c27 0 52 -24 52 -53c0 -27 -25 -52 -52 -52z" />
    <glyph glyph-name="kheh.isol" unicode="&#x6a9;" horiz-adv-x="840" arabic-form="isolated" 
d="M800 674c7 -8 10 -21 10 -34s-5 -29 -17 -38l-273 -205c11 0 23 -3 36 -6c-1 0 64 -14 107 -65c14 -17 81 -95 81 -226v-100h-479c-186 0 -195 161 -195 221c0 93 27 165 106 165h36c-42 -36 -56 -104 -56 -149c0 -39 1 -137 97 -137h387c0 127 -88 183 -89 184
c-34 21 -65 30 -100 30c-15 0 -31 -1 -49 -4l-22 30c-8 10 -13 22 -13 35c0 16 8 36 28 51l378 283z" />
    <glyph glyph-name="kheh.fina" unicode="&#x6a9;" horiz-adv-x="836" arabic-form="final" 
d="M744 100h97v-100h-576c-185 0 -195 161 -195 221c0 93 28 165 107 165h36c-42 -36 -57 -104 -57 -149c0 -39 2 -137 97 -137h387c0 127 -86 182 -89 184c-34 21 -64 30 -99 30c-16 0 -32 -1 -49 -4l-23 30c-8 10 -12 22 -12 35c0 16 8 36 28 51l378 283l26 -35
c7 -8 11 -21 11 -34s-6 -29 -18 -38l-273 -205c11 0 23 -3 36 -6c0 0 64 -14 107 -65c15 -18 81 -95 81 -226z" />
    <glyph glyph-name="kheh.init" unicode="&#x6a9;" horiz-adv-x="514" arabic-form="initial" 
d="M473 674c7 -8 11 -21 11 -34s-5 -29 -17 -38l-274 -205c11 0 23 -3 36 -6c1 0 64 -15 107 -65c15 -18 81 -94 81 -226v-100h-427v100h324c0 127 -87 183 -90 184c-33 21 -64 30 -100 30c-15 0 -30 -1 -48 -4l-23 30c-8 10 -13 22 -13 35c0 16 9 36 29 51l379 283z" />
    <glyph glyph-name="kheh.medi" unicode="&#x6a9;" horiz-adv-x="492" arabic-form="medial" 
d="M436 709l27 -35c6 -8 10 -21 10 -34c0 -14 -5 -29 -17 -38c-91 -69 -182 -136 -273 -205c11 0 23 -3 36 -6c8 0 188 -48 188 -291h95v-100h-512v100h313c0 127 -86 182 -89 184c-34 21 -64 30 -99 30c-15 0 -31 -1 -49 -4c-15 20 -36 39 -36 65c0 16 8 36 28 51
c125 94 252 189 378 283z" />
    <glyph glyph-name="Gaf.isol" unicode="&#x6af;" horiz-adv-x="840" arabic-form="isolated" 
d="M800 674c7 -8 10 -21 10 -34s-5 -29 -17 -38l-273 -205c11 0 23 -3 36 -6c-1 0 64 -14 107 -65c14 -17 81 -95 81 -226v-100h-479c-186 0 -195 161 -195 221c0 93 27 165 106 165h36c-42 -36 -56 -104 -56 -149c0 -39 1 -137 97 -137h387c0 127 -88 183 -89 184
c-34 21 -65 30 -100 30c-15 0 -31 -1 -49 -4l-22 30c-8 10 -13 22 -13 35c0 16 8 36 28 51l378 283zM704 812l19 -25c5 -9 9 -18 9 -28c0 -14 -7 -29 -22 -45c-114 -85 -270 -202 -383 -289c-15 22 -31 34 -31 61c0 12 4 24 12 30c107 82 287 215 396 296z" />
    <glyph glyph-name="Gaf.fina" unicode="&#x6af;" horiz-adv-x="836" arabic-form="final" 
d="M744 100h97v-100h-576c-185 0 -195 161 -195 221c0 93 28 165 107 165h36c-42 -36 -57 -104 -57 -149c0 -39 2 -137 97 -137h387c0 127 -86 182 -89 184c-34 21 -64 30 -99 30c-16 0 -32 -1 -49 -4l-23 30c-8 10 -12 22 -12 35c0 16 8 36 28 51l378 283l26 -35
c7 -8 11 -21 11 -34s-6 -29 -18 -38l-273 -205c11 0 23 -3 36 -6c0 0 64 -14 107 -65c15 -18 81 -95 81 -226zM704 812l19 -25c5 -9 9 -18 9 -28c0 -14 -7 -29 -22 -45c-114 -85 -270 -202 -383 -289c-15 22 -31 34 -31 61c0 12 4 24 12 30c107 82 287 215 396 296z" />
    <glyph glyph-name="Gaf.init" unicode="&#x6af;" horiz-adv-x="504" arabic-form="initial" 
d="M368 812l18 -25c21 -35 9 -51 -12 -73c-114 -85 -269 -202 -383 -289c-15 21 -31 34 -31 61c0 12 4 24 12 30c106 82 286 215 396 296zM438 709c32 -43 36 -56 36 -69s-5 -29 -17 -38l-274 -205c11 0 23 -3 36 -6c1 0 64 -15 107 -65c15 -18 81 -94 81 -226v-100h-427
v100h324c0 127 -87 183 -90 184c-33 21 -64 30 -100 30c-15 0 -30 -1 -48 -4l-23 30c-8 10 -13 22 -13 35c0 16 9 36 29 51z" />
    <glyph glyph-name="Gaf.medi" unicode="&#x6af;" horiz-adv-x="497" arabic-form="medial" 
d="M368 812l18 -25c6 -9 10 -18 10 -28c0 -14 -6 -29 -22 -45c-114 -85 -269 -202 -383 -289c-15 21 -31 34 -31 61c0 12 4 24 12 30c106 82 286 215 396 296zM436 709l27 -35c6 -8 10 -21 10 -34c0 -14 -5 -29 -17 -38c-91 -69 -182 -136 -273 -205c11 0 23 -3 36 -6
c8 0 188 -48 188 -291h95v-100h-512v100h313c0 127 -86 182 -89 184c-34 21 -64 30 -99 30c-15 0 -31 -1 -49 -4c-15 20 -36 39 -36 65c0 16 8 36 28 51c125 94 252 189 378 283z" />
    <glyph glyph-name="ghunna.isol" unicode="&#x6ba;" horiz-adv-x="687" arabic-form="isolated" 
d="M569 341c52 0 78 -28 78 -79v-242c-6 -104 -156 -214 -295 -214c-165 0 -282 135 -282 299c0 86 35 150 106 150h36c-42 -37 -56 -104 -56 -149c0 -100 72 -197 180 -197c130 0 196 71 196 176v256h37z" />
    <glyph glyph-name="ghunna.fina" unicode="&#x6ba;" horiz-adv-x="730" arabic-form="final" 
d="M735 100h10v-100h-26c-27 0 -51 3 -73 10c-17 -101 -161 -202 -294 -202c-165 0 -282 134 -282 298c0 87 35 151 106 151h36c-42 -37 -56 -104 -56 -150c0 -99 72 -197 180 -197c130 0 196 72 196 176v256h37c52 0 78 -28 78 -78v-142c18 -15 45 -22 88 -22z" />
    <glyph glyph-name="uni06BE" unicode="&#x6be;" horiz-adv-x="596" arabic-form="isolated" 
d="M99 12l-1 -70h-35c-34 0 -63 21 -63 87c0 23 9 71 65 71h48c-32 36 -41 72 -41 102c0 93 66 143 147 143c109 0 150 -92 149 -180l-1 -65h72c4 17 6 41 6 62c0 108 -53 248 -216 248c-57 0 -96 -15 -140 -56v39c0 66 18 117 162 117c224 0 295 -191 295 -361
c0 -16 -1 -95 -23 -149h-62c-54 0 -98 9 -122 28c-23 -23 -51 -28 -68 -28c-24 0 -138 -2 -172 12zM152 189c0 -6 -1 -89 133 -89c0 67 8 171 -71 171c-41 0 -62 -34 -62 -82z" />
    <glyph glyph-name="uniFBAB" unicode="&#x6be;" horiz-adv-x="572" arabic-form="final" 
d="M-10 0v100h94c3 105 24 244 178 244c105 0 170 -61 170 -174c0 -25 -5 -51 -14 -70h164v-100h-117c15 -29 25 -61 25 -98c0 -131 -79 -201 -200 -201c-179 0 -203 162 -206 284c0 4 1 10 1 15h-95zM303 -200c72 0 103 31 103 93c0 96 -65 107 -149 107
c-25 0 -50 -1 -72 -1c2 -66 -14 -199 118 -199zM274 258c-95 0 -102 -71 -102 -127v-31h62c72 0 126 -5 126 78c0 54 -24 80 -86 80z" />
    <glyph glyph-name="hehhamza" unicode="&#x6c0;" horiz-adv-x="504" arabic-form="isolated" 
d="M271 425c122 0 193 -99 193 -207c0 -122 -71 -219 -202 -219c-122 0 -192 97 -192 206c0 121 70 220 201 220zM262 341c-62 0 -93 -51 -93 -123c0 -84 31 -135 102 -135c63 0 93 51 93 122c0 85 -32 136 -102 136zM270 529h87v-20c0 -11 -9 -23 -25 -23h-121
c-15 0 -24 12 -24 23v20h33c-4 9 -4 19 -4 30c0 42 25 76 70 76c26 0 53 -12 60 -44c0 -17 -10 -30 -15 -44c-12 43 -37 50 -48 50c-17 0 -23 -15 -23 -35c0 -15 1 -27 10 -33z" />
    <glyph glyph-name="hehhamza.fina" unicode="&#x6c0;" horiz-adv-x="571" arabic-form="final" 
d="M270 529h87v-20c0 -11 -9 -23 -25 -23h-121c-15 0 -24 12 -24 23v20h33c-4 9 -4 19 -4 30c0 42 25 76 70 76c26 0 53 -12 60 -44c0 -17 -10 -30 -15 -44c-12 43 -37 50 -48 50c-17 0 -23 -15 -23 -35c0 -15 1 -27 10 -33zM514 100h71v-100c6 -1 -170 2 -231 -1
c-122 3 -284 27 -284 206c0 121 70 220 201 220c27 0 51 -5 73 -14v1c88 -35 125 -132 124 -226l-1 -86h47zM169 218c0 -132 133 -116 199 -118c0 22 1 47 1 72c0 84 -11 169 -107 169c-62 0 -93 -51 -93 -123z" />
    <glyph glyph-name="uni06C1" unicode="&#x6c1;" horiz-adv-x="504" arabic-form="isolated" 
d="M271 425c122 0 193 -99 193 -207c0 -122 -71 -219 -202 -219c-122 0 -192 97 -192 206c0 121 70 220 201 220zM262 341c-62 0 -93 -51 -93 -123c0 -84 31 -135 102 -135c63 0 93 51 93 122c0 85 -32 136 -102 136z" />
    <glyph glyph-name="hehfinaltone" unicode="&#x6c1;" horiz-adv-x="557" arabic-form="final" 
d="M565 89v-89h-34c-147 0 -218 69 -218 217v35c-77 -17 -143 -67 -199 -156l-73 59c79 117 194 197 338 197c13 0 39 -2 39 -2v-115c0 -105 36 -146 120 -146h27z" />
    <glyph glyph-name="hehinitialaltone" unicode="&#x6c1;" horiz-adv-x="286" arabic-form="initial" 
d="M169 341c51 0 77 -27 77 -79v-92c0 -93 -55 -166 -169 -170h-92v100h83c46 5 64 30 64 76v165h37zM66 -170c0 64 46 125 102 125h14c-19 -20 -32 -57 -32 -78c0 -39 32 -41 32 -78c0 -29 -24 -52 -55 -52c-37 0 -61 29 -61 83z" />
    <glyph glyph-name="hehmedialaltone" unicode="&#x6c1;" horiz-adv-x="696" arabic-form="medial" 
d="M706 100v-100h-122v-251h-94c-193 0 -280 107 -280 295c0 6 1 12 3 28c-33 -47 -82 -72 -149 -72h-69v100h79c82 0 136 66 136 170v105h104v-343c0 -122 62 -188 165 -194v262h227zM36 -170c0 64 46 125 102 125h14c-19 -20 -32 -57 -32 -78c0 -39 32 -41 32 -78
c0 -29 -24 -52 -55 -52c-37 0 -61 29 -61 83z" />
    <glyph glyph-name="uni06CC" unicode="&#x6cc;" horiz-adv-x="923" arabic-form="isolated" 
d="M743 0v322c-169 -2 -186 -109 -197 -238c-10 -141 -38 -242 -204 -242c-180 0 -272 92 -272 261c0 103 46 169 121 169l52 -5s-80 -38 -80 -156c0 -94 14 -172 185 -174h2c154 0 53 235 148 383c45 71 127 105 252 105h93v-325h90v-100h-190z" />
    <glyph glyph-name="alefmaksura.init" unicode="&#x649;" horiz-adv-x="291" arabic-form="initial" 
d="M174 341c51 0 77 -27 77 -79v-92c0 -93 -55 -166 -169 -170h-102v100h93c46 5 64 30 64 76v165h37z" />
    <glyph glyph-name="alefmaksura.medi" unicode="&#x649;" horiz-adv-x="297" arabic-form="medial" 
d="M207 201c4 -70 30 -101 105 -101v-100h-4c-62 0 -111 16 -146 47c-29 -28 -70 -45 -125 -47h-52v100h43c47 4 65 29 65 75v165h36c52 0 78 -26 78 -78v-61z" />
    <glyph glyph-name="uniFBFD" unicode="&#x6cc;" horiz-adv-x="729" arabic-form="final" 
d="M342 -144c-180 0 -272 92 -272 261c0 103 46 169 121 169l52 -5s-80 -65 -80 -156c0 -93 14 -174 186 -174c111 0 89 118 105 243c-14 6 -31 11 -62 13c-28 0 -48 27 -48 51v48h7c8 0 16 1 24 1c130 0 198 -66 248 -139c26 -39 46 -68 86 -68h30v-100h-27
c-83 0 -138 39 -166 100c-10 -117 -19 -244 -204 -244z" />
    <glyph glyph-name="uniFBFE" unicode="&#x6cc;" horiz-adv-x="291" arabic-form="initial" 
d="M174 341c51 0 77 -27 77 -79v-92c0 -93 -55 -166 -169 -170h-102v100h93c46 5 64 30 64 76v165h37zM57 -176c-32 0 -58 26 -58 58s26 57 58 57c31 0 57 -25 57 -57s-26 -58 -57 -58zM187 -176c-31 0 -57 26 -57 58s26 57 57 57c32 0 59 -25 59 -57s-27 -58 -59 -58z" />
    <glyph glyph-name="uniFBFF" unicode="&#x6cc;" horiz-adv-x="297" arabic-form="medial" 
d="M58 -175c-32 0 -58 25 -58 58c0 31 26 57 58 57c31 0 57 -26 57 -57c0 -33 -26 -58 -57 -58zM187 -175c-31 0 -57 25 -57 58c0 31 26 57 57 57s59 -26 59 -57c0 -33 -28 -58 -59 -58zM207 201c4 -70 30 -101 105 -101v-100h-4c-62 0 -111 16 -146 47
c-29 -28 -70 -45 -125 -47h-52v100h43c47 4 65 29 65 75v165h36c52 0 78 -26 78 -78v-61z" />
    <glyph glyph-name="yehbarree" unicode="&#x6d2;" horiz-adv-x="546" arabic-form="isolated" 
d="M556 100v-100h-322c-71 -5 -137 -24 -156 -64c-6 28 -8 60 -8 94c0 172 72 395 268 395c144 0 162 -52 162 -119v-38c-44 41 -83 56 -139 56c-121 0 -169 -160 -184 -224h379z" />
    <glyph glyph-name="yehbarree.fina" unicode="&#x6d2;" horiz-adv-x="758" arabic-form="final" 
d="M670 -307h-608c-1 12 -2 33 -2 45c0 188 127 362 367 362h346v-100h-357c-166 0 -245 -120 -250 -218h504v-89z" />
    <glyph glyph-name="uni06D3" unicode="&#x6d3;" horiz-adv-x="546" arabic-form="isolated" 
d="M556 0v100h-379c15 64 63 224 184 224c56 0 95 -15 139 -56v38c0 67 -18 119 -162 119c-196 0 -268 -223 -268 -395c0 -34 2 -66 8 -94c19 40 85 59 156 64h322zM336 526h87v-20c0 -11 -9 -23 -25 -23h-121c-15 0 -24 12 -24 23v20h33c-4 9 -4 19 -4 30c0 42 25 76 70 76
c26 0 53 -12 60 -44c0 -17 -10 -30 -15 -44c-12 43 -37 50 -48 50c-17 0 -23 -15 -23 -35c0 -15 1 -27 10 -33z" />
    <glyph glyph-name="uniFBB1" unicode="&#x6d3;" horiz-adv-x="758" arabic-form="final" 
d="M670 -307h-608c-1 12 -2 33 -2 45c0 188 127 362 367 362h346v-100h-357c-166 0 -245 -120 -250 -218h504v-89zM369 202h87v-20c0 -11 -9 -23 -25 -23h-121c-15 0 -24 12 -24 23v20h33c-4 9 -4 19 -4 30c0 42 25 76 70 76c26 0 53 -12 60 -44c0 -17 -10 -30 -15 -44
c-12 43 -37 50 -48 50c-17 0 -23 -15 -23 -35c0 -15 1 -27 10 -33z" />
    <glyph glyph-name="shadda_dammatan" unicode="&#xfc5e;" arabic-form="isolated" 
d="M-125 1l6 -72c2 -20 12 -34 30 -34c10 0 22 7 22 25c0 15 -2 36 -4 56c-2 18 3 22 24 22l6 -73c1 -19 10 -31 28 -31c16 0 24 13 23 34l-3 49c-1 9 -1 19 12 20h10l5 -78c1 -20 -10 -45 -43 -45c-12 0 -25 2 -43 18c-8 -11 -22 -17 -37 -17c-35 0 -51 26 -54 56
c-5 50 -4 51 -4 53c0 11 8 15 22 17zM2 163c32 0 57 -25 57 -59c0 -87 -148 -92 -182 -92c-19 0 -20 3 -21 19l8 1c14 8 22 25 22 44c0 22 -13 36 -36 36c-14 0 -23 -7 -27 -13c-2 4 -4 8 -4 12c0 10 12 22 35 22c38 0 58 -28 58 -57c0 -13 -5 -26 -15 -42c27 2 57 6 75 11
c-18 14 -29 33 -29 53c0 36 26 65 59 65zM0 59c23 0 33 20 33 42c0 25 -14 41 -34 41c-21 0 -32 -17 -32 -39c0 -24 14 -44 33 -44z" />
    <glyph glyph-name="shadda_kasratan" unicode="&#xfc5f;" arabic-form="isolated" 
d="M29 -75c-43 -3 -103 -6 -149 -8c-13 -1 -13 16 -13 24c55 3 97 5 145 8c9 1 16 -8 17 -24zM37 -118c-43 -3 -103 -6 -149 -8c-13 -1 -13 16 -13 24c55 3 97 5 145 8c9 1 16 -8 17 -24zM-123 96l6 -72c2 -20 12 -34 30 -34c10 0 22 7 22 25c0 15 -2 36 -4 56
c-2 18 3 22 24 22l6 -73c1 -19 10 -31 28 -31c16 0 24 13 23 34l-3 49c-1 9 -1 19 12 20h10l5 -78c1 -20 -10 -45 -43 -45c-12 0 -25 2 -43 18c-8 -11 -22 -17 -37 -17c-35 0 -51 26 -54 56c-5 50 -4 51 -4 53c0 11 8 15 22 17z" />
    <glyph glyph-name="shadda_fatha" unicode="&#xfc60;" arabic-form="isolated" 
d="M-128 1l6 -72c2 -20 12 -34 30 -34c10 0 22 7 22 25c0 15 -2 36 -4 56c-2 18 3 22 24 22l6 -73c1 -19 10 -31 28 -31c16 0 24 13 23 34l-3 49c-1 9 -1 19 12 20h10l5 -78c1 -20 -10 -45 -43 -45c-12 0 -25 2 -43 18c-8 -11 -22 -17 -37 -17c-35 0 -51 26 -54 56
c-5 50 -4 51 -4 53c0 11 8 15 22 17zM19 22c-43 -3 -103 -6 -149 -8c-13 -1 -13 16 -13 24c55 3 97 5 145 8c9 1 16 -8 17 -24z" />
    <glyph glyph-name="shadda_damma" unicode="&#xfc61;" arabic-form="isolated" 
d="M-125 1l6 -72c2 -20 12 -34 30 -34c10 0 22 7 22 25c0 15 -2 36 -4 56c-2 18 3 22 24 22l6 -73c1 -19 10 -31 28 -31c16 0 24 13 23 34l-3 49c-1 9 -1 19 12 20h10l5 -78c1 -20 -10 -45 -43 -45c-12 0 -25 2 -43 18c-8 -11 -22 -17 -37 -17c-35 0 -51 26 -54 56
c-5 50 -4 51 -4 53c0 11 8 15 22 17zM-19 60c22 1 29 18 29 42c0 27 -15 43 -35 43s-30 -19 -30 -41c0 -27 15 -44 36 -44zM-23 164c31 0 58 -21 58 -56c0 -102 -179 -92 -186 -94c-14 0 -15 6 -16 18l19 1c26 1 73 6 95 14c-17 13 -26 32 -26 52c0 37 24 65 56 65z" />
    <glyph glyph-name="shadda_kasra" unicode="&#xfc62;" arabic-form="isolated" 
d="M-123 49l6 -72c2 -20 12 -34 30 -34c10 0 22 7 22 25c0 15 -2 36 -4 56c-2 18 3 22 24 22l6 -73c1 -19 10 -31 28 -31c16 0 24 13 23 34l-3 49c-1 9 -1 19 12 20h10l5 -78c1 -20 -10 -45 -43 -45c-12 0 -25 2 -43 18c-8 -11 -22 -17 -37 -17c-35 0 -51 26 -54 56
c-5 50 -4 51 -4 53c0 11 8 15 22 17zM40 -118c-43 -3 -103 -6 -149 -8c-13 -1 -13 16 -13 24c55 3 97 5 145 8c9 1 16 -8 17 -24z" />
    <glyph glyph-name="shadda_alefsuperscript" unicode="&#xfc63;" arabic-form="isolated" 
d="M-51 15h-10c-8 0 -15 7 -15 23v82h11c6 0 14 -8 14 -17v-88zM-128 1l6 -72c2 -20 12 -34 30 -34c10 0 22 7 22 25c0 15 -2 36 -4 56c-2 18 3 22 24 22l6 -73c1 -19 10 -31 28 -31c16 0 24 13 23 34l-3 49c-1 9 -1 19 12 20h10l5 -78c1 -20 -10 -45 -43 -45
c-12 0 -25 2 -43 18c-8 -11 -22 -17 -37 -17c-35 0 -51 26 -54 56c-5 50 -4 51 -4 53c0 11 8 15 22 17z" />
    <glyph glyph-name="alah" unicode="&#xfdf2;" horiz-adv-x="1130" arabic-form="isolated" 
d="M569 100c52 4 70 29 70 75v429h36c52 0 78 -27 78 -78v-326c5 -69 15 -100 93 -100h34c47 4 64 30 64 75v429h37c52 0 79 -26 79 -78v-356c0 -94 -56 -166 -171 -170l-25 -1c-88 0 -121 16 -156 47c-44 -41 -103 -47 -204 -47c-42 0 -92 1 -150 1
c-122 0 -284 28 -284 205c0 121 70 220 201 220c128 0 198 -115 197 -239l-1 -86h102zM169 218c0 -135 133 -116 199 -119c0 22 1 47 1 72c0 85 -11 170 -107 170c-62 0 -93 -51 -93 -123z" />
    <glyph glyph-name=".notdef" horiz-adv-x="550" 
 />
    <glyph glyph-name=".null" 
 />
    <glyph glyph-name="CR" horiz-adv-x="500" 
 />
    <glyph glyph-name="space" unicode=" " horiz-adv-x="244" 
 />
    <glyph glyph-name="uni00A0" unicode="&#xa0;" horiz-adv-x="120" 
 />
    <glyph glyph-name="A" unicode="A" horiz-adv-x="551" 
d="M541 0h-50c-50 0 -77 29 -81 58c-6 40 -10 70 -16 96h-241c-12 -51 -23 -103 -31 -154h-47c-40 0 -55 21 -55 58c0 87 112 442 205 545h49c46 0 81 -27 98 -56c54 -97 145 -359 169 -547zM366 250c-20 84 -61 186 -93 242c-35 -63 -73 -158 -93 -242h186z" />
    <glyph glyph-name="AE" unicode="&#xc6;" horiz-adv-x="805" 
d="M783 73c0 -53 -29 -80 -132 -80h-40c-135 0 -218 33 -232 165h-218c-16 -44 -36 -106 -49 -158h-48c-33 0 -49 16 -49 42c0 6 1 13 2 20c13 88 155 436 265 540h500v-40c0 -38 -33 -63 -82 -63h-257c8 -39 17 -95 24 -140h248v-43c0 -37 -25 -55 -73 -55h-167l8 -58
c11 -82 27 -107 117 -107h51c59 0 110 10 132 19v-42zM364 255c-4 68 -27 197 -40 245c-46 -64 -96 -169 -123 -245h163z" />
    <glyph glyph-name="B" unicode="B" horiz-adv-x="545" 
d="M504 187c0 -122 -96 -190 -206 -190h-66c-112 0 -168 50 -168 144v437c29 11 109 27 160 27h73c115 0 197 -60 197 -159c0 -67 -36 -110 -96 -127c61 -17 106 -80 106 -132zM373 436c0 52 -48 69 -93 69h-45c-15 0 -35 -3 -52 -6v-136h93c53 0 97 21 97 73zM383 183
c0 65 -33 86 -103 86h-96v-124c0 -21 23 -38 53 -38h49c65 0 97 30 97 76z" />
    <glyph glyph-name="C" unicode="C" horiz-adv-x="533" 
d="M491 442h-5c-38 49 -113 65 -165 65c-108 0 -188 -78 -188 -195c0 -141 79 -213 192 -213c60 0 127 24 160 59h4v-45c0 -83 -96 -118 -180 -118c-160 0 -297 119 -297 300c0 185 124 317 308 317c99 0 171 -41 171 -124v-46z" />
    <glyph glyph-name="D" unicode="D" horiz-adv-x="598" 
d="M560 311c0 -183 -120 -316 -277 -316h-51c-102 0 -167 40 -167 133v454c29 11 103 23 149 23h62c139 0 284 -93 284 -294zM437 294c0 135 -75 209 -179 209h-26c-15 0 -46 -6 -46 -6v-346c0 -35 16 -51 60 -51h21c99 0 170 85 170 194z" />
    <glyph glyph-name="Eth" unicode="&#xd0;" horiz-adv-x="589" 
d="M56 342v240c29 11 103 23 149 23h62c139 0 284 -93 284 -294c0 -183 -120 -316 -277 -316h-51c-102 0 -167 40 -167 133v132h-65v39c0 25 16 43 44 43h21zM301 342v-39c0 -28 -17 -43 -47 -43h-77v-109c0 -35 16 -51 60 -51h21c100 0 170 85 170 194
c0 135 -75 209 -179 209h-26c-15 0 -46 -6 -46 -6v-155h124z" />
    <glyph glyph-name="E" unicode="E" horiz-adv-x="502" 
d="M480 113v-43c0 -48 -27 -74 -132 -74h-64c-147 0 -224 81 -224 235v111c0 58 4 122 11 170c10 72 43 91 93 91h315v-41c0 -42 -26 -63 -81 -63h-207c-6 -44 -9 -103 -9 -141h232v-43c0 -40 -24 -55 -73 -55h-159v-36c0 -104 34 -125 128 -125h38c44 0 89 4 132 14z" />
    <glyph glyph-name="F" unicode="F" horiz-adv-x="441" 
d="M436 565c0 -28 -21 -63 -69 -63h-186v-149h218v-36c0 -39 -31 -60 -58 -60h-155v-257h-50c-44 0 -71 23 -71 70v440c0 74 30 93 101 93h270v-38z" />
    <glyph glyph-name="G" unicode="G" horiz-adv-x="586" 
d="M544 140c0 -91 -51 -151 -201 -151c-160 0 -301 117 -301 305c0 178 124 319 330 319c113 0 162 -62 162 -118v-42h-5c-40 35 -108 51 -171 51c-112 0 -192 -82 -192 -193c0 -153 83 -212 191 -212c58 0 72 22 72 57v48c0 48 -9 88 -9 88h62c33 0 62 -29 62 -55v-97z" />
    <glyph glyph-name="H" unicode="H" horiz-adv-x="612" 
d="M547 0h-49c-35 0 -70 28 -70 81v178h-243v-259h-47c-40 0 -73 28 -73 81v522h59c34 0 60 -29 60 -64v-179h244v243h54c31 0 65 -25 65 -64v-539z" />
    <glyph glyph-name="I" unicode="I" horiz-adv-x="256" 
d="M187 0h-46c-35 0 -73 27 -73 80v523h54c31 0 65 -26 65 -64v-539z" />
    <glyph glyph-name="J" unicode="J" horiz-adv-x="350" 
d="M295 162c0 -99 -56 -173 -180 -173c-66 0 -111 33 -111 70v55h4c19 -11 54 -19 91 -19c54 0 74 24 74 72v436h41c54 0 81 -28 81 -82v-359z" />
    <glyph glyph-name="K" unicode="K" horiz-adv-x="545" 
d="M104 603c58 0 80 -39 80 -81v-188c54 79 107 161 173 232c32 34 45 37 92 37h83v-5c-47 -47 -167 -191 -227 -277c56 -82 109 -174 187 -238c17 -14 30 -21 48 -25c-11 -43 -30 -61 -78 -61c-29 0 -63 15 -84 39c-74 85 -134 173 -194 268v-304h-40c-58 0 -79 40 -79 82
v521h39z" />
    <glyph glyph-name="L" unicode="L" horiz-adv-x="467" 
d="M462 82c0 -53 -26 -87 -126 -87h-46c-142 0 -220 79 -220 223v385h49c49 0 75 -28 75 -88v-289c0 -91 21 -125 111 -125h31c57 0 104 13 126 22v-41z" />
    <glyph glyph-name="M" unicode="M" horiz-adv-x="805" 
d="M751 0h-45c-46 0 -78 26 -78 80c0 77 -13 298 -23 357c-8 -19 -19 -44 -28 -71l-84 -259c-14 -43 -33 -83 -50 -107h-32c-40 0 -75 31 -97 96l-86 254c-11 31 -25 67 -34 88c-16 -86 -26 -328 -26 -438h-42c-45 0 -76 29 -76 80c0 135 26 403 48 523h26
c84 0 142 -38 165 -102l84 -236c18 -51 29 -87 34 -115c5 23 10 42 17 62l70 214c31 95 68 157 94 177h14c68 0 110 -42 120 -125c11 -95 29 -357 29 -478z" />
    <glyph glyph-name="N" unicode="N" horiz-adv-x="621" 
d="M556 0h-47c-47 0 -98 14 -173 159l-110 214c-16 34 -30 56 -40 71v-444h-48c-35 0 -73 26 -73 79v524h60c78 0 131 -42 171 -123l105 -212c12 -25 28 -60 36 -81v416h53c31 0 66 -31 66 -70v-533z" />
    <glyph glyph-name="O" unicode="O" horiz-adv-x="648" 
d="M606 311c0 -183 -105 -322 -289 -322c-152 0 -275 123 -275 303c0 188 106 321 289 321c146 0 275 -111 275 -302zM482 294c0 142 -61 213 -163 213c-89 0 -153 -73 -153 -196c0 -146 53 -217 163 -217c93 0 153 67 153 200z" />
    <glyph glyph-name="OE" unicode="&#x152;" horiz-adv-x="825" 
d="M803 111l-1 -42c-1 -53 -25 -75 -130 -75h-31c-103 0 -156 35 -184 85c-33 -56 -84 -94 -164 -94c-125 0 -251 114 -251 307c0 180 91 326 267 326c51 0 108 -27 138 -69c9 28 39 53 73 53h282c0 -62 -5 -105 -81 -105h-173c-8 -32 -13 -106 -13 -141h212v-43
c0 -39 -25 -55 -73 -55h-139l1 -35c3 -101 41 -126 121 -126h15c61 0 112 8 131 14zM419 294c0 170 -34 216 -116 216c-87 0 -135 -90 -135 -202c0 -146 64 -215 138 -215c77 0 113 38 113 201z" />
    <glyph glyph-name="P" unicode="P" horiz-adv-x="505" 
d="M490 420c0 -128 -88 -206 -203 -206c-42 0 -77 7 -101 20v-234h-48c-33 0 -73 22 -73 86v493c34 12 114 28 157 28h68c117 0 200 -67 200 -187zM366 409c0 69 -28 96 -91 96h-39c-15 0 -36 -5 -50 -8v-171c21 -6 54 -10 85 -10c62 0 95 35 95 93z" />
    <glyph glyph-name="Thorn" unicode="&#xde;" horiz-adv-x="505" 
d="M366 304c0 69 -28 88 -91 88h-39c-15 0 -36 -2 -50 -5v-159c21 -4 54 -8 85 -8c62 0 95 26 95 84zM65 603h55c31 0 66 -26 66 -64v-49c14 2 25 4 36 4h68c117 0 200 -58 200 -179c0 -128 -88 -197 -203 -197c-42 0 -78 6 -101 14v-132h-48c-33 0 -73 22 -73 86v517z" />
    <glyph glyph-name="Q" unicode="Q" horiz-adv-x="655" 
d="M266 -6c-101 20 -224 119 -224 299c0 178 91 320 293 320c139 0 271 -110 271 -302c0 -154 -92 -260 -171 -276c46 -15 134 -23 192 -23v-38c0 -36 -17 -58 -65 -58c-89 0 -221 36 -296 78zM482 296c0 138 -51 211 -162 211c-96 0 -154 -79 -154 -196
c0 -147 63 -218 169 -218c92 0 147 89 147 203z" />
    <glyph glyph-name="R" unicode="R" horiz-adv-x="541" 
d="M521 15c-14 -15 -25 -19 -58 -19c-39 0 -72 15 -88 53l-45 109c-27 66 -53 71 -84 76c-27 4 -48 8 -60 8v-242h-39c-54 0 -82 33 -82 81v505c26 10 110 22 155 22h67c120 0 198 -72 198 -173c0 -82 -54 -150 -124 -160c32 -14 60 -50 75 -85l48 -113
c15 -35 30 -51 37 -62zM273 504h-34c-11 0 -40 -2 -53 -6v-159c26 -5 53 -5 86 -5c49 0 91 28 91 81c0 73 -37 89 -90 89z" />
    <glyph glyph-name="S" unicode="S" horiz-adv-x="514" 
d="M469 187c0 -119 -81 -198 -227 -198c-122 0 -184 48 -184 119v54h2c41 -36 95 -65 169 -65c90 0 119 31 119 79c0 41 -16 60 -143 87c-102 22 -160 73 -160 155c0 100 84 195 226 195c141 0 181 -59 181 -110v-55h-3c-37 40 -91 59 -157 59c-93 0 -128 -31 -128 -78
c0 -36 28 -58 141 -81c110 -23 164 -80 164 -161z" />
    <glyph glyph-name="T" unicode="T" horiz-adv-x="490" 
d="M483 565c0 -29 -32 -68 -72 -68h-111v-497h-48c-42 0 -73 27 -73 81v416h-174v40c0 29 24 66 73 66h405v-38z" />
    <glyph glyph-name="U" unicode="U" horiz-adv-x="596" 
d="M545 272c0 -177 -82 -283 -255 -283c-146 0 -240 98 -240 272v342h47c37 0 74 -27 74 -111v-223c0 -112 38 -167 132 -167c85 0 120 56 120 163v338h46c46 0 76 -34 76 -108v-223z" />
    <glyph glyph-name="V" unicode="V" horiz-adv-x="547" 
d="M447 278c-36 -88 -78 -186 -139 -282h-10c-38 0 -67 13 -88 48c-96 154 -174 366 -201 559h69c45 0 71 -30 77 -66c19 -111 50 -222 121 -373c65 139 112 287 135 439h67c29 0 52 -19 52 -52c0 -34 -43 -177 -83 -273z" />
    <glyph glyph-name="W" unicode="W" horiz-adv-x="841" 
d="M764 305c-30 -94 -67 -191 -136 -310h-29c-13 0 -37 1 -58 38c-44 78 -92 205 -120 334c-29 -131 -79 -268 -141 -372h-28c-15 0 -41 1 -61 38c-89 158 -157 373 -182 570h69c42 0 68 -37 73 -69c17 -103 43 -215 99 -349c55 129 99 309 115 395h40c40 0 82 -18 94 -80
c20 -101 51 -203 100 -315c50 122 93 273 112 417h63c28 0 52 -20 52 -56c0 -33 -42 -177 -62 -241z" />
    <glyph glyph-name="X" unicode="X" horiz-adv-x="608" 
d="M593 31c-19 -22 -38 -38 -87 -38c-55 0 -95 29 -155 117l-76 111c-84 -100 -113 -163 -128 -221h-59c-31 0 -50 22 -50 47c0 47 9 95 114 209l57 62l-71 99c-64 90 -97 145 -108 186h83c27 0 61 -11 122 -102l73 -109c101 116 125 159 139 212h45c38 0 54 -26 54 -61
c0 -43 -66 -129 -171 -248l80 -117c48 -70 100 -118 138 -147z" />
    <glyph glyph-name="Y" unicode="Y" horiz-adv-x="505" 
d="M490 556c0 -46 -123 -236 -177 -299v-257h-51c-35 0 -73 26 -73 79v178c-70 91 -146 234 -184 346h57c47 0 73 -24 81 -42c30 -71 77 -157 115 -211c39 54 103 162 130 253h53c32 0 49 -19 49 -47z" />
    <glyph glyph-name="Z" unicode="Z" horiz-adv-x="526" 
d="M486 62c0 -30 -24 -62 -68 -62h-302c-43 0 -76 27 -76 76c0 52 41 104 91 160l149 169c28 32 58 68 66 92h-306v33c0 47 26 73 90 73h274c58 0 81 -29 81 -79c0 -37 -29 -90 -73 -139l-148 -167c-41 -46 -75 -86 -81 -112h303v-44z" />
    <glyph glyph-name="a" unicode="a" horiz-adv-x="458" 
d="M417 155c0 -96 -71 -163 -171 -163h-23c-108 0 -182 61 -182 144c0 81 59 142 226 142h39v6c0 64 -30 83 -97 83c-82 0 -127 -31 -144 -52h-4v36c0 51 45 111 164 111c101 0 192 -47 192 -203v-104zM307 154v43h-40c-86 0 -110 -20 -110 -57c0 -35 28 -56 78 -56
c48 0 72 24 72 70z" />
    <glyph glyph-name="ae" unicode="&#xe6;" horiz-adv-x="735" 
d="M697 297c0 -87 -50 -111 -199 -111l-82 2c8 -58 44 -100 124 -100c64 0 110 14 138 41h3v-35c0 -59 -39 -103 -154 -103c-77 0 -140 38 -163 80c-19 -45 -67 -81 -138 -81h-23c-100 0 -163 57 -163 138s58 146 215 146h49v11c0 60 -31 82 -98 82c-82 0 -124 -27 -143 -51
h-3v37c0 51 43 111 163 111c69 0 127 -29 148 -79c27 50 90 80 152 80c86 0 174 -59 174 -168zM513 372c-55 0 -91 -38 -96 -85l-2 -17h48c13 0 24 -1 34 -1c77 0 94 8 94 40c0 40 -30 63 -78 63zM305 153v41h-41c-86 0 -108 -20 -108 -58c0 -36 23 -54 76 -54
c39 0 73 31 73 71z" />
    <glyph glyph-name="b" unicode="b" horiz-adv-x="548" 
d="M506 236c0 -136 -88 -246 -225 -246c-116 0 -214 95 -214 231v414h39c44 0 74 -25 74 -78v-162c23 33 61 69 122 69c116 0 204 -94 204 -228zM389 217c0 110 -39 147 -108 147c-57 0 -100 -57 -100 -127c0 -104 44 -147 111 -147c57 0 97 54 97 127z" />
    <glyph glyph-name="c" unicode="c" horiz-adv-x="440" 
d="M408 307h-5c-15 26 -58 47 -122 47c-66 0 -124 -52 -124 -120c0 -82 49 -138 125 -138c65 0 104 21 120 42h4v-52c0 -55 -53 -94 -135 -94c-124 0 -231 96 -231 226c0 129 89 240 244 240c72 0 124 -44 124 -98v-53z" />
    <glyph glyph-name="d" unicode="d" horiz-adv-x="533" 
d="M468 209c0 -132 -62 -219 -218 -219c-119 0 -210 104 -210 228c0 149 72 246 204 246c45 0 95 -32 112 -72v243h35c53 0 77 -31 77 -77v-349zM355 214c0 114 -50 155 -110 155c-58 0 -95 -56 -95 -129c0 -94 49 -155 114 -155c63 0 91 47 91 129z" />
    <glyph glyph-name="eth" unicode="&#xf0;" horiz-adv-x="518" 
d="M478 234c0 -137 -79 -244 -224 -244c-136 0 -214 108 -214 228c0 136 74 240 214 240c35 0 64 -9 89 -35c-10 45 -46 89 -83 112l-81 -60c-14 11 -25 18 -25 33c0 27 24 38 41 51c-38 9 -52 33 -52 53v35l34 -1c37 -1 75 -14 105 -24l73 55l18 -17c5 -5 7 -10 7 -16
c0 -26 -24 -40 -41 -53c95 -64 139 -177 139 -357zM361 218c0 91 -33 142 -107 142c-65 0 -98 -51 -98 -126c0 -90 33 -143 108 -143c65 0 97 53 97 127z" />
    <glyph glyph-name="e" unicode="e" horiz-adv-x="481" 
d="M443 288c0 -83 -63 -110 -213 -110h-74c9 -57 61 -93 127 -93c47 0 103 9 139 43h4v-36c0 -58 -39 -102 -164 -102c-112 0 -222 89 -222 228c0 151 92 246 221 246c94 0 182 -68 182 -176zM337 302c0 45 -34 68 -86 68c-54 0 -92 -45 -95 -97v-15h50c107 0 131 12 131 44
z" />
    <glyph glyph-name="f" unicode="f" horiz-adv-x="318" 
d="M328 504h-4c-17 6 -38 10 -65 10c-47 0 -81 -16 -81 -76v-41h129v-31c0 -40 -42 -64 -80 -64h-49v-302h-45c-36 0 -68 28 -68 67v380c0 64 44 166 176 166c49 0 87 -27 87 -71v-38z" />
    <glyph glyph-name="g" unicode="g" horiz-adv-x="526" 
d="M458 188c0 -34 3 -85 3 -119c0 -114 -75 -215 -221 -215c-94 0 -157 45 -157 99v51h5c27 -28 79 -49 143 -49c82 0 119 39 119 105c0 14 -2 34 -2 46v11c-9 -33 -52 -67 -117 -67c-110 0 -188 76 -188 183c0 127 84 231 230 231c113 0 185 -83 185 -199v-77zM261 364
c-58 0 -102 -49 -102 -117c0 -59 36 -103 90 -103c56 0 97 42 97 115c0 70 -36 105 -85 105z" />
    <glyph glyph-name="h" unicode="h" horiz-adv-x="534" 
d="M469 0h-37c-47 0 -77 27 -77 76v184c0 74 -40 104 -89 104c-36 0 -82 -27 -82 -107v-257h-37c-53 0 -77 29 -77 76v529h35c54 0 80 -30 80 -72v-130c17 27 55 61 98 61c117 0 186 -70 186 -199v-265z" />
    <glyph glyph-name="i" unicode="i" horiz-adv-x="292" 
d="M202 552c0 -36 -31 -66 -67 -66s-65 30 -65 66s29 65 65 65s67 -29 67 -65zM282 64c0 -49 -19 -68 -67 -68c-87 0 -135 49 -135 141v307h32c50 0 80 -27 80 -84v-212c0 -46 20 -60 69 -60h21v-24z" />
    <glyph glyph-name="j" unicode="j" horiz-adv-x="258" 
d="M193 554c-1 -37 -29 -67 -65 -67s-66 30 -66 67c0 36 30 65 66 65s65 -29 65 -65zM182 3c0 -95 -65 -150 -153 -150c-44 0 -73 24 -73 51v41c65 0 113 3 113 69v430h32c51 0 81 -27 81 -79v-362z" />
    <glyph glyph-name="k" unicode="k" horiz-adv-x="491" 
d="M106 605c55 0 77 -31 77 -75v-270c44 57 87 115 139 164c27 25 54 30 90 30h64v-5c-32 -26 -137 -146 -184 -205c37 -45 72 -91 112 -132s60 -50 87 -59c-11 -36 -30 -56 -76 -56c-25 0 -55 12 -74 32c-58 59 -108 126 -158 193v-221l-36 -1c-52 -2 -77 27 -77 80v525h36
z" />
    <glyph glyph-name="l" unicode="l" horiz-adv-x="284" 
d="M289 64c0 -49 -26 -68 -76 -68c-93 0 -143 49 -143 141v468h32c56 0 80 -33 80 -76v-381c0 -46 24 -60 77 -60h30v-24z" />
    <glyph glyph-name="m" unicode="m" horiz-adv-x="789" 
d="M724 0h-28c-61 0 -85 29 -85 82v175c0 75 -34 107 -83 107c-46 0 -77 -32 -77 -94v-270h-30c-50 0 -82 29 -82 82v175c0 75 -35 107 -84 107c-44 0 -77 -35 -77 -97v-267h-30c-46 0 -82 30 -82 82v176c0 123 65 206 202 206c59 0 105 -27 138 -71c26 42 75 71 130 71
c104 0 188 -63 188 -192v-272z" />
    <glyph glyph-name="n" unicode="n" horiz-adv-x="529" 
d="M464 0h-31c-50 0 -82 32 -82 74v180c0 76 -34 110 -92 110c-48 0 -82 -37 -82 -102v-262h-33c-48 0 -79 32 -79 74v196c0 95 63 194 204 194c106 0 195 -72 195 -200v-264z" />
    <glyph glyph-name="o" unicode="o" horiz-adv-x="518" 
d="M40 218c0 136 78 246 224 246c136 0 214 -110 214 -230c0 -136 -78 -244 -224 -244c-136 0 -214 108 -214 228zM361 218c0 91 -33 145 -107 145c-65 0 -98 -54 -98 -129c0 -90 33 -143 108 -143c65 0 97 53 97 127z" />
    <glyph glyph-name="oe" unicode="&#x153;" horiz-adv-x="790" 
d="M752 297c0 -85 -50 -118 -199 -118h-82c9 -58 57 -92 124 -92c64 0 110 15 138 42h2v-37c0 -58 -45 -102 -161 -102c-57 0 -125 27 -163 79c-33 -51 -87 -79 -159 -79c-126 0 -212 101 -212 229c0 147 87 245 222 245c48 0 118 -25 153 -76c41 55 96 76 161 76
c85 0 176 -62 176 -167zM563 372c-73 0 -93 -68 -93 -94v-19h48c106 0 128 11 128 47c0 39 -34 66 -83 66zM255 362c-63 0 -100 -51 -100 -127c0 -101 48 -143 111 -143c56 0 89 44 89 135c0 98 -42 135 -100 135z" />
    <glyph glyph-name="p" unicode="p" horiz-adv-x="537" 
d="M497 240c0 -145 -72 -250 -204 -250c-50 0 -91 28 -114 67v-200h-35c-41 0 -79 30 -79 78v274c0 151 67 255 226 255c121 0 206 -110 206 -224zM381 211c0 107 -35 153 -107 153c-62 0 -97 -54 -97 -132c0 -91 45 -142 112 -142c54 0 92 49 92 121z" />
    <glyph glyph-name="thorn" unicode="&#xfe;" horiz-adv-x="558" 
d="M184 264v-43c0 -81 52 -127 116 -127c57 0 97 51 97 127c0 112 -37 160 -113 160c-59 0 -100 -47 -100 -117zM66 249v385h34c58 0 84 -35 84 -80v-102c28 22 71 34 119 34c126 0 215 -115 215 -234c0 -153 -75 -263 -213 -263c-53 0 -96 26 -120 62v-201h-37
c-42 0 -83 31 -83 82v287c0 11 1 20 1 30z" />
    <glyph glyph-name="q" unicode="q" horiz-adv-x="536" 
d="M270 464c130 0 201 -87 201 -229v-378l-37 1c-47 1 -74 24 -74 75v116c-19 -37 -65 -59 -110 -59c-114 0 -210 90 -210 223c0 143 92 251 230 251zM255 364c-51 0 -103 -48 -103 -130c0 -94 40 -144 109 -144c63 0 99 38 99 132c0 96 -36 142 -105 142z" />
    <glyph glyph-name="r" unicode="r" horiz-adv-x="336" 
d="M326 344h-4c-17 6 -36 13 -66 13c-50 0 -78 -28 -78 -97v-260h-31c-50 0 -82 25 -82 72v209c0 90 47 177 167 177c69 0 94 -40 94 -74v-40z" />
    <glyph glyph-name="s" unicode="s" horiz-adv-x="426" 
d="M387 143c0 -96 -68 -153 -189 -153c-84 0 -146 43 -146 89v51h4c25 -22 83 -43 136 -43c56 0 83 16 83 50c0 26 -16 38 -94 49c-96 13 -142 52 -142 121c0 84 76 157 192 157c103 0 145 -53 145 -97v-43h-5c-23 24 -75 42 -129 42c-69 0 -91 -21 -91 -50
c0 -24 14 -33 91 -45c94 -16 145 -57 145 -128z" />
    <glyph glyph-name="germandbls" unicode="&#xdf;" horiz-adv-x="586" 
d="M545 148c0 -92 -52 -157 -170 -157c-71 0 -111 39 -111 75v50h5c24 -13 56 -23 92 -23c44 0 63 20 63 50c0 37 -11 46 -60 72c-58 30 -80 53 -80 105c0 35 17 71 73 104c33 20 44 40 44 58c0 38 -23 57 -86 57c-60 0 -110 -45 -110 -138v-401h-38c-59 0 -82 26 -82 86
v322c0 150 97 234 235 234c118 0 201 -54 201 -155c0 -48 -24 -80 -72 -106c-51 -27 -60 -38 -60 -55s12 -27 78 -65c46 -26 78 -63 78 -113z" />
    <glyph glyph-name="t" unicode="t" horiz-adv-x="354" 
d="M70 435c0 60 42 121 85 121h27v-102h157v-47c0 -23 -21 -53 -68 -53h-89v-178c0 -58 26 -81 71 -81c36 0 64 5 81 16h5v-40c0 -47 -34 -76 -100 -76c-114 0 -169 62 -169 168v272z" />
    <glyph glyph-name="u" unicode="u" horiz-adv-x="528" 
d="M463 203c0 -141 -67 -213 -198 -213c-112 0 -200 74 -200 206v258h21c64 0 93 -28 93 -81v-166c0 -84 40 -117 91 -117c47 0 79 32 79 109v255h21c65 0 93 -28 93 -81v-170z" />
    <glyph glyph-name="v" unicode="v" horiz-adv-x="438" 
d="M423 400c0 -30 -71 -268 -170 -405h-22c-32 0 -52 12 -74 45c-62 93 -138 292 -148 414h60c38 0 62 -30 67 -54c15 -84 39 -172 87 -265c43 85 82 205 99 319h48c38 0 53 -17 53 -54z" />
    <glyph glyph-name="w" unicode="w" horiz-adv-x="684" 
d="M669 407c0 -17 -19 -95 -52 -189c-34 -96 -76 -179 -105 -223h-19c-71 0 -130 148 -152 264c-14 -69 -67 -209 -107 -264h-15c-34 0 -66 34 -81 60c-66 116 -109 247 -129 399h60c37 0 61 -30 66 -55c13 -77 34 -163 72 -245c41 90 64 187 85 283h37c35 0 69 -14 80 -64
c14 -61 41 -155 73 -219c43 95 68 200 85 302h47c32 0 55 -14 55 -49z" />
    <glyph glyph-name="x" unicode="x" horiz-adv-x="472" 
d="M460 50c0 -32 -24 -57 -74 -57c-48 0 -81 27 -120 87l-49 75c-63 -71 -78 -105 -85 -157h-51c-26 0 -47 18 -47 41c0 54 31 97 88 158l37 40l-48 69c-51 73 -79 113 -81 148h67c22 0 50 -15 100 -86l47 -66c72 82 84 105 91 151h43c33 0 46 -23 46 -48
c0 -32 -40 -94 -122 -185l50 -72c50 -72 68 -90 108 -98z" />
    <glyph glyph-name="y" unicode="y" horiz-adv-x="431" 
d="M316 97c-84 -198 -128 -244 -210 -244c-42 0 -79 28 -79 70v22l64 4c41 2 55 17 80 83c-60 90 -145 315 -161 422h60c31 0 60 -21 66 -53c16 -88 49 -182 90 -262c37 85 78 222 88 315h49c36 0 53 -16 53 -53c0 -48 -79 -255 -100 -304z" />
    <glyph glyph-name="z" unicode="z" horiz-adv-x="437" 
d="M397 53c0 -28 -30 -53 -58 -53h-221c-52 0 -78 24 -78 60c0 34 26 77 69 124l115 124c13 14 30 36 38 52h-222v34c0 34 24 60 74 60h206c53 0 71 -32 71 -58c0 -36 -19 -78 -58 -120l-114 -123c-16 -18 -32 -38 -42 -56h220v-44z" />
    <glyph glyph-name="ordfeminine" unicode="&#xaa;" horiz-adv-x="368" 
d="M301 394c0 -66 -48 -112 -115 -112h-14c-71 0 -120 42 -120 100c0 56 39 98 148 98h22c0 41 -17 52 -59 52c-52 0 -83 -19 -95 -34h-4v27c0 36 32 78 110 78c66 0 127 -32 127 -139v-70zM222 393v26h-22c-55 0 -66 -13 -66 -34c0 -22 15 -34 45 -34c29 0 43 12 43 42z
" />
    <glyph glyph-name="ordmasculine" unicode="&#xba;" horiz-adv-x="363" 
d="M326 447c0 -91 -51 -165 -147 -165c-89 0 -141 74 -141 154c0 92 51 166 147 166c89 0 141 -74 141 -155zM244 436c0 60 -21 92 -65 92c-38 0 -59 -32 -59 -81c0 -59 21 -91 65 -91c39 0 59 32 59 80z" />
    <glyph glyph-name="grave" unicode="`" horiz-adv-x="501" 
d="M137 628c0 32 20 45 49 45c57 0 112 -65 149 -124v-4h-39c-75 0 -159 37 -159 83z" />
    <glyph glyph-name="acute" unicode="&#xb4;" horiz-adv-x="465" 
d="M318 628c0 -46 -84 -83 -159 -83h-39v4c37 59 92 124 149 124c29 0 49 -13 49 -45z" />
    <glyph glyph-name="circumflex" unicode="&#x2c6;" horiz-adv-x="569" 
d="M422 525l-138 64l-137 -63v28c0 43 14 64 52 86l86 49l83 -48c34 -20 54 -43 54 -90v-26z" />
    <glyph glyph-name="tilde" unicode="&#x2dc;" horiz-adv-x="373" 
d="M335 626c0 -47 -32 -85 -88 -85c-48 0 -86 42 -118 42c-20 0 -35 -19 -35 -49h-22c-17 0 -34 14 -34 44c0 64 51 88 87 88c49 0 82 -44 120 -44c26 0 35 14 35 48h27c14 0 28 -21 28 -44z" />
    <glyph glyph-name="dieresis" unicode="&#xa8;" horiz-adv-x="462" 
d="M388 602c0 -34 -29 -63 -63 -63s-63 29 -63 63s29 62 63 62s63 -28 63 -62zM200 602c0 -34 -29 -63 -63 -63c-35 0 -63 29 -63 63s28 62 63 62c34 0 63 -28 63 -62z" />
    <glyph glyph-name="macron" unicode="&#xaf;" horiz-adv-x="300" 
d="M267 628v-39c0 -22 -24 -45 -55 -45h-179v32c0 29 23 52 64 52h170z" />
    <glyph glyph-name="macron" unicode="&#x2c9;" horiz-adv-x="300" 
d="M267 628v-39c0 -22 -24 -45 -55 -45h-179v32c0 29 23 52 64 52h170z" />
    <glyph glyph-name="cedilla" unicode="&#xb8;" horiz-adv-x="518" 
d="M368 -124c0 -71 -69 -99 -132 -99c-37 0 -105 7 -105 61v29h5c24 -19 63 -25 94 -25c27 0 54 5 54 31c0 21 -18 28 -51 28c-20 0 -42 -2 -58 -4c11 41 21 71 26 103h62c0 -4 0 -13 -3 -39c48 0 108 -24 108 -85z" />
    <glyph glyph-name="mu" unicode="&#xb5;" horiz-adv-x="534" 
d="M479 218c0 -145 -72 -223 -181 -223c-54 0 -95 23 -117 66v-196l-43 -1c-43 -1 -74 27 -74 75v535h23c60 0 98 -22 98 -84v-168c0 -64 23 -123 94 -123c48 0 81 34 81 115v260h21c69 0 98 -29 98 -84v-172z" />
    <glyph glyph-name="mu" unicode="&#x3bc;" horiz-adv-x="534" 
d="M479 218c0 -145 -72 -223 -181 -223c-54 0 -95 23 -117 66v-196l-43 -1c-43 -1 -74 27 -74 75v535h23c60 0 98 -22 98 -84v-168c0 -64 23 -123 94 -123c48 0 81 34 81 115v260h21c69 0 98 -29 98 -84v-172z" />
    <glyph glyph-name="exclam" unicode="!" horiz-adv-x="301" 
d="M209 541l-9 -330h-37c-43 0 -70 28 -70 76l-9 329h54c45 0 71 -27 71 -75zM230 77c0 -42 -35 -77 -77 -77s-78 35 -78 77c0 43 36 78 78 78s77 -35 77 -78z" />
    <glyph glyph-name="exclamdown" unicode="&#xa1;" horiz-adv-x="301" 
d="M200 271l9 -330c0 -48 -26 -75 -71 -75h-54l9 329c0 48 27 76 70 76h37zM230 405c0 -43 -35 -78 -77 -78s-78 35 -78 78c0 42 36 77 78 77s77 -35 77 -77z" />
    <glyph glyph-name="question" unicode="?" horiz-adv-x="432" 
d="M399 476c0 -46 -15 -78 -63 -119l-72 -61c-34 -29 -39 -43 -39 -74v-32h-42c-27 0 -55 23 -55 53c0 44 15 77 59 113l64 53c20 17 27 36 27 54c0 43 -30 67 -90 67c-69 0 -119 -22 -147 -60h-5v42c0 61 53 125 170 125c126 0 193 -74 193 -161zM271 77
c0 -42 -35 -77 -77 -77s-78 35 -78 77c0 43 36 78 78 78s77 -35 77 -78z" />
    <glyph glyph-name="questiondown" unicode="&#xbf;" horiz-adv-x="424" 
d="M166 400c0 41 34 75 76 75c41 0 75 -34 75 -75c0 -42 -34 -76 -75 -76c-42 0 -76 34 -76 76zM220 -154c-119 0 -185 70 -185 154c0 42 16 75 61 114l67 58c32 27 37 42 37 70v33h42c28 0 55 -23 55 -52c0 -43 -16 -71 -56 -107l-61 -54c-19 -17 -25 -34 -25 -50
c0 -38 27 -61 83 -61c65 0 112 22 139 57h7v-42c0 -59 -51 -120 -164 -120z" />
    <glyph glyph-name="comma" unicode="," horiz-adv-x="310" 
d="M230 31c0 -80 -57 -155 -126 -155h-24v5c24 23 41 67 41 93c0 45 -39 46 -39 93c0 36 30 66 71 66c46 0 77 -36 77 -102z" />
    <glyph glyph-name="semicolon" unicode=";" horiz-adv-x="317" 
d="M237 408c-1 -43 -34 -78 -77 -78c-42 0 -77 35 -77 78s35 77 77 77s77 -34 77 -77zM230 31c0 -80 -57 -155 -126 -155h-24v5c24 23 41 67 41 93c0 44 -38 46 -38 93c0 36 29 66 70 66c47 0 77 -36 77 -102z" />
    <glyph glyph-name="semicolon" unicode="&#x37e;" horiz-adv-x="317" 
d="M237 408c-1 -43 -34 -78 -77 -78c-42 0 -77 35 -77 78s35 77 77 77s77 -34 77 -77zM230 31c0 -80 -57 -155 -126 -155h-24v5c24 23 41 67 41 93c0 44 -38 46 -38 93c0 36 29 66 70 66c47 0 77 -36 77 -102z" />
    <glyph glyph-name="colon" unicode=":" horiz-adv-x="315" 
d="M235 409c0 -43 -35 -78 -78 -78c-42 0 -77 35 -77 78s35 77 77 77c43 0 78 -34 78 -77zM235 77c0 -42 -35 -77 -78 -77c-42 0 -77 35 -77 77c0 43 35 78 77 78c43 0 78 -35 78 -78z" />
    <glyph glyph-name="period" unicode="." horiz-adv-x="315" 
d="M235 77c0 -42 -35 -77 -77 -77s-78 35 -78 77c0 43 36 78 78 78s77 -35 77 -78z" />
    <glyph glyph-name="ellipsis" unicode="&#x2026;" horiz-adv-x="787" 
d="M707 76c0 -42 -35 -76 -76 -76s-76 34 -76 76c0 41 35 75 76 75s76 -34 76 -75zM469 76c0 -42 -34 -76 -76 -76c-41 0 -75 34 -75 76c0 41 34 75 75 75c42 0 76 -34 76 -75zM231 76c0 -42 -34 -76 -75 -76c-42 0 -76 34 -76 76c0 41 34 75 76 75c41 0 75 -34 75 -75z" />
    <glyph glyph-name="quoteleft" unicode="&#x2018;" horiz-adv-x="240" 
d="M46 502c0 77 56 151 124 151h23v-5c-23 -22 -40 -65 -40 -91c0 -45 38 -44 38 -91c0 -36 -29 -65 -69 -65c-46 0 -76 35 -76 101z" />
    <glyph glyph-name="quoteright" unicode="&#x2019;" horiz-adv-x="240" 
d="M194 534c0 -77 -55 -151 -123 -151h-24v5c24 22 41 65 41 91c0 43 -38 45 -38 90c0 36 29 65 69 65c45 0 75 -35 75 -100z" />
    <glyph glyph-name="quotedblleft" unicode="&#x201c;" horiz-adv-x="402" 
d="M216 501c0 77 56 151 123 151h24v-5c-23 -22 -40 -65 -40 -91c0 -44 37 -45 37 -90c0 -37 -29 -66 -68 -66c-45 0 -76 36 -76 101zM33 501c0 77 55 151 123 151h24v-5c-24 -22 -40 -65 -40 -91c0 -44 37 -45 37 -90c0 -37 -29 -66 -68 -66c-46 0 -76 36 -76 101z" />
    <glyph glyph-name="quotedblright" unicode="&#x201d;" horiz-adv-x="403" 
d="M364 532c0 -77 -54 -151 -123 -151h-24v5c24 22 41 65 41 91c0 45 -38 43 -38 91c0 35 30 65 69 65c45 0 75 -35 75 -101zM180 532c0 -77 -56 -151 -124 -151h-23v5c23 22 40 65 40 91c0 45 -38 43 -38 91c0 35 29 65 69 65c46 0 76 -35 76 -101z" />
    <glyph glyph-name="quotesinglbase" unicode="&#x201a;" horiz-adv-x="240" 
d="M191 30c0 -78 -55 -151 -123 -151h-24v5c24 22 41 65 41 90c0 44 -38 45 -38 91c0 36 29 65 68 65c46 0 76 -35 76 -100z" />
    <glyph glyph-name="quotedblbase" unicode="&#x201e;" horiz-adv-x="398" 
d="M407 30c0 -78 -55 -151 -123 -151h-24v5c24 22 41 65 41 90c0 44 -38 45 -38 91c0 36 29 65 69 65c45 0 75 -35 75 -100zM196 30c0 -78 -55 -151 -123 -151h-24v5c24 22 41 65 41 90c0 44 -38 45 -38 91c0 36 29 65 68 65c46 0 76 -35 76 -100z" />
    <glyph glyph-name="guilsinglleft" unicode="&#x2039;" horiz-adv-x="309" 
d="M258 82h-37c-48 0 -74 13 -93 40l-87 127l87 128c16 23 38 38 93 38h37l-106 -166z" />
    <glyph glyph-name="guilsinglright" unicode="&#x203a;" horiz-adv-x="309" 
d="M88 82h-37l106 167l-106 166h37c55 0 77 -15 93 -38l87 -128l-87 -127c-19 -27 -45 -40 -93 -40z" />
    <glyph glyph-name="guillemotleft" unicode="&#xab;" horiz-adv-x="401" 
d="M380 64h-20c-48 0 -75 13 -92 41l-79 126l79 128c15 24 38 39 92 39h20l-97 -167zM215 64h-20c-49 0 -74 13 -93 41l-87 126l87 128c16 23 38 39 93 39h20l-107 -167z" />
    <glyph glyph-name="guillemotright" unicode="&#xbb;" horiz-adv-x="401" 
d="M41 64h-20l97 167l-97 167h20c54 0 77 -15 92 -39l79 -128l-79 -126c-18 -28 -44 -41 -92 -41zM206 64h-20l107 167l-107 167h20c55 0 77 -16 93 -39l87 -128l-87 -126c-20 -28 -44 -41 -93 -41z" />
    <glyph glyph-name="slash" unicode="/" horiz-adv-x="404" 
d="M364 558l-264 -558h-22c-23 0 -44 17 -44 48c0 13 4 31 11 46l253 540h31c22 0 41 -13 41 -40c0 -9 -2 -26 -6 -36z" />
    <glyph glyph-name="bar" unicode="|" horiz-adv-x="220" 
d="M137 -150h-18c-17 0 -36 15 -36 40v744h17c18 0 37 -13 37 -36v-748z" />
    <glyph glyph-name="brokenbar" unicode="&#xa6;" horiz-adv-x="249" 
d="M148 283h-18c-17 0 -36 15 -36 40v311h17c18 0 37 -13 37 -36v-315zM148 -150h-18c-17 0 -36 15 -36 40v311h17c18 0 37 -13 37 -36v-315z" />
    <glyph glyph-name="backslash" unicode="\" horiz-adv-x="376" 
d="M376 0h-49c-33 0 -81 26 -103 78l-220 525h57c29 0 71 -24 87 -62z" />
    <glyph glyph-name="hyphen" unicode="-" horiz-adv-x="426" 
d="M346 319v-48c0 -32 -22 -50 -59 -50h-207v46c0 30 21 52 56 52h210z" />
    <glyph glyph-name="hyphen" unicode="&#xad;" horiz-adv-x="426" 
d="M346 319v-48c0 -32 -22 -50 -59 -50h-207v46c0 30 21 52 56 52h210z" />
    <glyph glyph-name="uni00AD" horiz-adv-x="330" 
d="M252 222h-210v66h210v-66z" />
    <glyph glyph-name="endash" unicode="&#x2013;" horiz-adv-x="530" 
d="M485 312v-47c0 -31 -22 -49 -58 -49h-384v45c0 29 20 51 54 51h388z" />
    <glyph glyph-name="emdash" unicode="&#x2014;" horiz-adv-x="898" 
d="M857 312v-47c0 -31 -21 -49 -57 -49h-755v45c0 29 20 51 54 51h758z" />
    <glyph glyph-name="underscore" unicode="_" horiz-adv-x="502" 
d="M502 -253h-502v75h502v-75z" />
    <glyph glyph-name="bullet" unicode="&#x2022;" horiz-adv-x="380" 
d="M190 421c61 0 110 -48 110 -110c0 -63 -48 -110 -110 -110c-59 0 -110 47 -110 110c0 62 50 110 110 110z" />
    <glyph glyph-name="periodcentered" unicode="&#xb7;" horiz-adv-x="231" 
d="M115 172c-42 0 -73 31 -73 75c0 45 31 78 74 78s74 -32 74 -78c0 -44 -29 -75 -74 -75h-1z" />
    <glyph glyph-name="periodcentered" unicode="&#x2219;" horiz-adv-x="231" 
d="M115 172c-42 0 -73 31 -73 75c0 45 31 78 74 78s74 -32 74 -78c0 -44 -29 -75 -74 -75h-1z" />
    <glyph glyph-name="parenleft" unicode="(" horiz-adv-x="371" 
d="M350 -153h-62c-20 0 -51 13 -73 30c-59 46 -135 197 -135 363c0 216 104 408 211 408h60v-5c-81 -85 -148 -207 -148 -385c0 -193 68 -335 147 -407v-4z" />
    <glyph glyph-name="parenright" unicode=")" horiz-adv-x="370" 
d="M20 647h63c19 0 51 -13 72 -30c60 -47 135 -197 135 -363c0 -217 -104 -408 -210 -408h-60v5c81 85 147 207 147 385c0 193 -67 335 -147 407v4z" />
    <glyph glyph-name="bracketleft" unicode="[" horiz-adv-x="292" 
d="M281 -150h-202v784h150c33 0 52 -20 52 -51v-28h-113v-626h65c27 0 48 -18 48 -50v-29z" />
    <glyph glyph-name="bracketright" unicode="]" horiz-adv-x="292" 
d="M213 -150h-202v29c0 32 21 50 48 50h65v626h-113v28c0 31 19 51 52 51h150v-784z" />
    <glyph glyph-name="braceleft" unicode="{" horiz-adv-x="329" 
d="M115 136c0 34 -18 61 -49 66l-42 7v34c0 21 11 33 42 38c37 5 47 38 47 66c0 34 -5 70 -5 105c0 103 26 182 136 182h74v-36c0 -25 -15 -44 -46 -44h-15c-60 0 -58 -68 -58 -120c0 -27 4 -56 4 -88c0 -66 -26 -98 -77 -106v-2c51 -8 79 -40 79 -106c0 -33 -6 -51 -6 -85
c0 -51 1 -117 54 -117h66v-36c0 -30 -28 -44 -52 -44h-23c-113 0 -136 83 -136 185c0 37 7 68 7 101z" />
    <glyph glyph-name="braceright" unicode="}" horiz-adv-x="329" 
d="M214 136c0 -33 7 -64 7 -101c0 -102 -23 -185 -136 -185h-23c-24 0 -52 14 -52 44v36h66c53 0 54 66 54 117c0 34 -6 52 -6 85c0 66 28 98 79 106v2c-51 8 -77 40 -77 106c0 32 3 61 3 88c0 52 3 120 -57 120h-15c-31 0 -46 19 -46 44v36h74c109 0 136 -79 136 -182
c0 -35 -5 -71 -5 -105c0 -28 10 -61 47 -66c31 -5 42 -17 42 -38v-34l-42 -7c-31 -5 -49 -32 -49 -66z" />
    <glyph glyph-name="asterisk" unicode="*" horiz-adv-x="570" 
d="M412 431c-24 0 -50 -2 -68 -4c38 -46 37 -79 106 -97c-18 -38 -34 -65 -67 -65c-64 0 -75 76 -100 127c-38 -51 -49 -87 -49 -134c-60 3 -92 25 -92 66c0 57 51 79 87 112c-36 12 -59 16 -88 16c-14 0 -30 -4 -61 -14c4 60 24 109 76 109c48 0 68 -26 104 -48
c1 7 1 12 1 18c0 40 -4 86 -38 128c15 5 39 14 56 14c41 0 76 -19 76 -66c0 -36 -17 -68 -26 -103c44 9 91 44 122 90c24 -36 39 -59 39 -87c0 -46 -40 -62 -78 -62z" />
    <glyph glyph-name="dagger" unicode="&#x2020;" horiz-adv-x="455" 
d="M415 441c0 -34 -26 -70 -78 -70h-59v-510h-31c-33 0 -70 26 -70 78v432h-137v40c0 29 24 61 62 61h75v173h40c29 0 61 -24 61 -62v-111h137v-31z" />
    <glyph glyph-name="daggerdbl" unicode="&#x2021;" horiz-adv-x="461" 
d="M352 85h-72v-235h-40c-38 0 -59 28 -59 62v173h-141v41c0 28 22 61 60 61h81v189h-141v39c0 29 22 61 60 61h81v158h47c32 0 52 -25 52 -54v-104h141v-39c0 -37 -28 -61 -69 -61h-72v-189h141v-40c0 -38 -28 -62 -69 -62z" />
    <glyph glyph-name="section" unicode="&#xa7;" horiz-adv-x="537" 
d="M395 135c33 -23 52 -58 52 -97c0 -98 -67 -161 -199 -161c-101 0 -154 49 -154 103v47h5c32 -35 86 -59 144 -59c49 0 87 15 87 59c0 30 -11 45 -136 88c-78 27 -119 77 -119 136c0 48 37 91 82 109c-35 18 -63 51 -63 104c0 84 78 148 206 148c75 0 125 -41 125 -91v-45
h-3c-35 34 -78 47 -132 47c-57 0 -84 -28 -84 -48c0 -32 13 -46 103 -79c81 -29 154 -68 154 -150c0 -51 -33 -96 -68 -111zM300 292c-38 13 -59 20 -93 35c-17 -12 -31 -30 -31 -54c0 -62 76 -70 160 -107c15 13 25 31 25 61c0 29 -17 49 -61 65z" />
    <glyph glyph-name="paragraph" unicode="&#xb6;" horiz-adv-x="480" 
d="M406 -11h-25c-29 0 -53 19 -53 70v451c0 24 -9 29 -34 29h-29v-550h-19c-32 0 -59 19 -59 70v190h-6c-52 0 -150 51 -150 165c0 93 49 199 255 199c84 0 120 -29 120 -90v-534z" />
    <glyph glyph-name="asciicircum" unicode="^" horiz-adv-x="455" 
d="M395 368c-8 -3 -17 -4 -25 -4c-33 1 -65 18 -73 42c-9 27 -48 97 -74 136c-28 -42 -80 -123 -102 -175h-16c-28 0 -45 14 -45 34c0 23 78 159 145 233h18c40 0 132 -147 172 -266z" />
    <glyph glyph-name="asciitilde" unicode="~" horiz-adv-x="535" 
d="M466 287c0 -61 -43 -109 -117 -109c-37 0 -63 16 -90 32c-26 15 -53 23 -69 23c-26 0 -48 -24 -48 -64h-28c-22 0 -44 18 -44 57c0 84 67 114 115 114c68 0 112 -58 162 -58c33 0 48 18 48 62h35c17 0 36 -25 36 -57z" />
    <glyph glyph-name="quotesingle" unicode="'" horiz-adv-x="286" 
d="M205 541l-14 -142h-29c-42 0 -66 28 -70 75l-12 142h55c45 0 70 -27 70 -75z" />
    <glyph glyph-name="quotedbl" unicode="&#x22;" horiz-adv-x="456" 
d="M375 542l-13 -142h-29c-43 0 -66 27 -70 75l-13 142h55c46 0 70 -28 70 -75zM205 542l-13 -142h-29c-43 0 -66 27 -70 75l-13 142h55c46 0 70 -28 70 -75z" />
    <glyph glyph-name="ampersand" unicode="&#x26;" horiz-adv-x="716" 
d="M636 57c0 -45 -18 -69 -60 -69c-27 0 -60 5 -91 36l-31 31c-25 -28 -75 -66 -168 -66c-136 0 -206 77 -206 179c0 75 60 139 120 173c-30 34 -58 77 -58 119c0 81 62 158 179 158c91 0 154 -54 154 -142c0 -61 -52 -117 -130 -161c26 -33 77 -94 111 -126
c31 35 61 101 63 157h24c27 0 50 -17 50 -63c0 -50 -42 -118 -73 -160l18 -17c41 -39 67 -48 98 -49zM373 473c0 38 -22 58 -58 58c-40 0 -62 -23 -62 -65c0 -33 23 -58 41 -84c54 30 79 56 79 91zM391 120c-34 33 -106 111 -134 151c-31 -18 -62 -51 -62 -90
c0 -70 39 -96 107 -96c31 0 68 13 89 35z" />
    <glyph glyph-name="at" unicode="@" horiz-adv-x="723" 
d="M673 366c0 -135 -76 -227 -179 -227c-39 0 -67 20 -79 58c-29 -37 -59 -58 -104 -58c-55 0 -112 60 -112 144c0 114 81 207 193 207c52 0 120 -42 120 -81c0 -27 -7 -54 -12 -78c-6 -30 -9 -57 -9 -76c0 -28 9 -35 19 -35c30 0 78 40 78 143c0 112 -71 196 -203 196
s-246 -104 -246 -270c0 -142 90 -222 216 -222c45 0 100 3 153 29v-29c0 -50 -27 -74 -170 -74c-153 0 -288 109 -288 289c0 186 136 351 344 351c164 0 279 -113 279 -267zM419 386c-9 8 -20 14 -40 14c-37 0 -76 -45 -76 -108c0 -51 21 -60 34 -60c52 0 68 55 82 154z" />
    <glyph glyph-name="copyright" unicode="&#xa9;" horiz-adv-x="733" 
d="M669 292c0 -167 -136 -303 -303 -303s-302 136 -302 303s135 303 302 303s303 -136 303 -303zM611 292c0 135 -110 245 -245 245c-134 0 -244 -110 -244 -245c0 -134 110 -244 244 -244c135 0 245 110 245 244zM496 355h-7c-22 26 -60 36 -91 36c-56 0 -97 -38 -97 -96
c0 -72 38 -105 97 -105c34 0 70 12 89 32h7v-33c0 -53 -70 -76 -111 -76c-58 0 -177 38 -177 172c0 51 29 181 178 181c59 0 112 -25 112 -78v-33z" />
    <glyph glyph-name="registered" unicode="&#xae;" horiz-adv-x="723" 
d="M659 292c0 -167 -136 -303 -303 -303s-302 136 -302 303s135 303 302 303s303 -136 303 -303zM601 292c0 135 -110 245 -245 245c-134 0 -244 -110 -244 -245c0 -134 110 -244 244 -244c135 0 245 110 245 244zM510 145c-19 -18 -29 -20 -50 -20c-98 0 -59 128 -145 128
v-128h-35c-39 0 -60 23 -60 54v277c25 9 76 15 102 15h38c75 0 126 -43 126 -104c0 -39 -22 -72 -65 -89c29 -14 38 -46 56 -81c12 -24 33 -46 33 -52zM390 357c0 34 -16 42 -38 42h-20c-3 0 -11 -1 -17 -2v-71c10 -1 22 -1 36 -1c22 0 39 11 39 32z" />
    <glyph glyph-name="trademark" unicode="&#x2122;" horiz-adv-x="740" 
d="M690 267h-37c-66 0 -47 64 -57 184c-10 -31 -39 -144 -65 -185h-22c-46 0 -63 76 -98 187c-5 -57 -7 -132 -7 -187l-34 1c-27 1 -49 18 -49 49c0 86 12 193 25 260h23c47 0 77 -24 89 -51c18 -42 34 -92 48 -136c11 32 46 168 88 188h7c45 0 69 -28 74 -70
c9 -72 15 -156 15 -240zM309 543c0 -18 -20 -43 -49 -43h-38v-237h-38c-27 0 -49 13 -49 45v192h-85v33c0 18 17 42 50 42h209v-32z" />
    <glyph glyph-name="degree" unicode="&#xb0;" horiz-adv-x="378" 
d="M325 488c0 -74 -53 -132 -135 -132c-85 0 -137 58 -137 131c0 74 49 134 137 134h1c86 0 134 -57 134 -133zM245 488c0 33 -18 65 -55 65h-1c-36 0 -55 -33 -55 -66c0 -29 21 -61 55 -61c37 0 56 29 56 62z" />
    <glyph glyph-name="currency" unicode="&#xa4;" horiz-adv-x="550" 
d="M477 134l-59 -44l-71 96c-23 -14 -50 -22 -79 -22c-23 0 -43 5 -60 12l-64 -86l-60 43l65 80c-22 26 -35 64 -35 116c0 45 14 84 40 111l-70 86l59 42l66 -89c21 11 47 16 73 16c22 0 48 -4 71 -16l67 90l57 -43l-69 -87c18 -23 30 -57 30 -105c0 -42 -14 -80 -36 -107z
M365 334c0 58 -24 101 -92 101c-48 0 -87 -39 -87 -104c0 -59 24 -107 91 -107c47 0 88 40 88 110z" />
    <glyph glyph-name="Euro" unicode="&#x20ac;" horiz-adv-x="527" 
d="M478 143h5v-44c0 -47 -48 -110 -144 -110c-132 0 -221 82 -239 219h-76v27c0 25 15 41 36 41h34s-1 16 -1 27c0 9 1 24 1 24h-70v30c0 26 19 40 36 40h40c24 143 126 216 244 216c82 0 139 -52 139 -115v-40h-5c-23 30 -68 52 -118 52c-67 0 -124 -26 -138 -113h188v-26
c0 -26 -17 -44 -43 -44h-152s-1 -15 -1 -24c0 -11 1 -27 1 -27h195v-28c0 -23 -15 -40 -43 -40h-146c13 -80 56 -114 138 -114c49 0 97 20 119 49z" />
    <glyph glyph-name="dollar" unicode="$" horiz-adv-x="589" 
d="M509 184c0 -116 -98 -178 -169 -183v-123h-28c-37 0 -54 17 -54 51v71c-126 5 -164 61 -164 124v42h2c34 -34 95 -64 171 -64c90 0 119 24 119 73c0 45 -22 61 -144 82c-92 15 -162 57 -162 153c0 107 88 172 178 184v121h35c32 0 47 -18 47 -51v-67
c98 -7 152 -46 152 -111v-48h-4c-37 39 -92 56 -159 56c-98 0 -128 -29 -128 -71c0 -41 16 -55 142 -77c106 -19 166 -76 166 -162z" />
    <glyph glyph-name="cent" unicode="&#xa2;" horiz-adv-x="521" 
d="M277 565c36 0 52 -18 52 -58v-52c55 -7 97 -43 97 -93v-56h-6c-17 29 -54 47 -121 47c-65 0 -120 -52 -120 -119c0 -83 49 -137 123 -137c53 0 101 16 116 41h6v-54c0 -40 -36 -76 -95 -87v-116h-17c-38 0 -58 23 -58 59v56c-106 17 -191 105 -191 221
c0 113 68 212 191 235v113h23z" />
    <glyph glyph-name="sterling" unicode="&#xa3;" horiz-adv-x="530" 
d="M224 103h246v-40c0 -45 -30 -63 -88 -63h-315v33c0 42 79 102 79 170c0 14 -2 36 -6 50h-106v22c0 44 22 65 65 65h23c-4 23 -11 49 -11 80c0 108 89 183 212 183c65 0 117 -41 117 -86v-45h-5c-28 17 -67 26 -112 26c-50 0 -87 -34 -87 -89c0 -25 3 -49 8 -69h161v-29
c0 -38 -28 -58 -67 -58h-84c2 -8 4 -30 4 -40c0 -45 -13 -84 -34 -110z" />
    <glyph glyph-name="florin" unicode="&#x192;" horiz-adv-x="531" 
d="M493 504h-6c-20 8 -51 14 -65 14c-39 0 -66 -28 -74 -87l-8 -57h119v-33c0 -27 -23 -54 -75 -54h-54l-25 -203c-13 -107 -40 -195 -160 -195c-56 0 -90 29 -90 61v48h5c18 -10 54 -15 68 -15c31 0 56 14 65 90l24 214h-103v32c0 32 31 53 61 54l53 1l6 48
c8 66 35 190 180 190c52 0 79 -29 79 -62v-46z" />
    <glyph glyph-name="yen" unicode="&#xa5;" horiz-adv-x="526" 
d="M498 561c0 -36 -95 -157 -156 -227h127v-38c0 -21 -23 -40 -57 -40h-95v-72h152v-38c0 -18 -24 -40 -57 -40h-95v-106h-50c-26 0 -55 25 -55 60v46h-149v32c0 26 20 46 56 46h93v72h-149v32c0 25 20 46 56 46h71c-65 78 -137 179 -167 269h56c46 0 71 -20 79 -35
c29 -59 76 -136 113 -181c38 45 103 143 134 216h49c29 0 44 -19 44 -42z" />
    <glyph glyph-name="numbersign" unicode="#" horiz-adv-x="664" 
d="M584 422c0 -37 -24 -58 -65 -58h-28l-22 -110h75v-28c0 -37 -23 -60 -65 -60h-27l-32 -166h-37c-36 0 -50 19 -50 51c0 7 1 15 3 23l18 92h-94l-33 -166h-37c-36 0 -49 19 -49 51c0 7 1 16 2 24l18 91h-81v29c0 37 24 59 65 59h34l20 110h-79v27c0 37 23 60 65 60h31
l33 165h28c37 0 57 -18 57 -54c0 -6 -1 -11 -2 -18l-18 -93h95l32 165h28c36 0 58 -19 58 -53c0 -6 0 -13 -2 -21l-17 -91h76v-29zM393 364h-96l-20 -110h94z" />
    <glyph glyph-name="zero" unicode="0" horiz-adv-x="566" 
d="M516 321c0 -230 -99 -332 -233 -332c-136 0 -233 106 -233 308c0 224 95 330 242 330c142 0 224 -119 224 -306zM172 322c0 -169 42 -225 120 -225c60 0 102 60 102 196c0 170 -37 226 -111 226c-62 0 -111 -55 -111 -197z" />
    <glyph glyph-name="one" unicode="1" horiz-adv-x="344" 
d="M294 0h-49c-42 0 -74 27 -74 80v409l-60 -22c-17 -6 -33 -9 -46 -9c-35 0 -54 18 -59 45l-6 32l112 49c62 27 83 32 116 32c40 0 66 -33 66 -65v-551z" />
    <glyph glyph-name="two" unicode="2" horiz-adv-x="530" 
d="M480 60c0 -38 -34 -60 -83 -60h-285c-35 0 -62 27 -62 61c0 42 20 85 116 165l144 120c33 27 42 55 42 82c0 56 -39 91 -107 91c-90 0 -141 -25 -182 -80h-4v44c0 72 54 144 208 144c119 0 206 -83 206 -182c0 -90 -35 -135 -128 -207l-96 -74c-20 -16 -48 -43 -58 -59
h289v-45z" />
    <glyph glyph-name="three" unicode="3" horiz-adv-x="520" 
d="M470 183c0 -116 -81 -194 -242 -194c-98 0 -178 41 -178 124v49h5c38 -41 96 -67 179 -67c81 0 114 37 114 84c0 59 -39 81 -116 83c-54 1 -75 16 -75 47v40c17 2 41 3 67 4c91 3 121 37 121 81c0 55 -38 88 -121 88c-68 0 -132 -23 -165 -66h-4v52c0 51 65 119 191 119
c134 0 220 -68 220 -172c0 -88 -48 -129 -111 -143c54 -11 115 -68 115 -129z" />
    <glyph glyph-name="four" unicode="4" horiz-adv-x="593" 
d="M543 199c0 -32 -17 -53 -51 -53h-46v-146h-47c-43 0 -72 27 -72 79v67h-209c-41 0 -68 28 -68 56c0 34 8 52 16 67c43 77 176 278 261 347h45c44 0 74 -28 74 -86v-283h97v-48zM327 247v244c-43 -55 -127 -178 -163 -244h163z" />
    <glyph glyph-name="five" unicode="5" horiz-adv-x="523" 
d="M473 200c0 -133 -94 -211 -238 -211c-131 0 -185 47 -185 116v46h5c41 -36 85 -54 167 -54c90 0 125 34 125 96c0 63 -47 88 -146 88c-50 0 -101 -10 -144 -20v246c0 71 25 109 98 109h297v-32c0 -45 -29 -75 -84 -75h-191v-137c21 2 55 5 81 5c118 0 215 -66 215 -177z
" />
    <glyph glyph-name="six" unicode="6" horiz-adv-x="549" 
d="M499 209c0 -100 -60 -220 -228 -220c-123 0 -221 89 -221 292c0 232 112 346 278 346c83 0 140 -49 140 -112v-37h-6c-24 25 -58 45 -130 45c-113 0 -157 -77 -160 -200c21 47 73 77 131 77c105 0 196 -67 196 -191zM176 210c0 -63 35 -117 102 -117c68 0 100 36 100 106
c0 68 -45 99 -98 99c-69 0 -104 -41 -104 -88z" />
    <glyph glyph-name="seven" unicode="7" horiz-adv-x="526" 
d="M465 556c0 -28 -23 -82 -53 -146c-54 -113 -161 -231 -161 -358v-52h-50c-37 0 -62 18 -62 69c0 46 18 106 39 145c146 265 158 276 166 295h-292v43c0 39 19 65 67 65h279c49 0 67 -24 67 -61z" />
    <glyph glyph-name="eight" unicode="8" horiz-adv-x="537" 
d="M487 175c0 -106 -58 -186 -226 -186c-131 0 -211 72 -211 177c0 66 52 129 106 145c-52 18 -103 59 -103 134c0 112 95 182 220 182c127 0 211 -76 211 -173c0 -83 -51 -120 -103 -135c50 -18 106 -72 106 -144zM265 520c-57 0 -88 -35 -88 -77c0 -46 28 -79 95 -79
c58 0 89 33 89 75c0 50 -30 81 -96 81zM366 179c0 50 -35 87 -101 87c-50 0 -92 -36 -92 -80c0 -57 27 -90 99 -90c65 0 94 37 94 83z" />
    <glyph glyph-name="nine" unicode="9" horiz-adv-x="549" 
d="M499 323c0 -228 -96 -334 -245 -334c-100 0 -171 42 -171 114v44h5c29 -28 82 -52 160 -52c84 0 123 53 128 191c-16 -47 -57 -79 -114 -79c-128 0 -212 77 -212 193c0 132 80 227 232 227c132 0 217 -84 217 -304zM375 400c0 86 -39 124 -103 124
c-63 0 -98 -46 -98 -110c0 -73 39 -104 97 -104c65 0 104 36 104 90z" />
    <glyph glyph-name="onesuperior" unicode="&#xb9;" horiz-adv-x="347" 
d="M231 247h-48c-32 0 -57 22 -57 58v210l-31 -10c-7 -2 -13 -3 -19 -3c-23 0 -43 13 -47 33l-5 27c28 13 98 41 98 41c16 7 36 11 59 11c24 0 50 -17 50 -48v-319z" />
    <glyph glyph-name="twosuperior" unicode="&#xb2;" horiz-adv-x="396" 
d="M280 238h-176c-27 0 -51 18 -51 46c0 35 26 65 65 96l82 65c16 13 23 26 23 42c0 22 -16 39 -58 39c-48 0 -75 -10 -102 -43h-3v34c0 51 37 96 136 96c84 0 134 -55 134 -115c0 -54 -19 -77 -82 -121c-17 -12 -39 -23 -72 -52h162v-37c0 -31 -20 -50 -58 -50z" />
    <glyph glyph-name="threesuperior" unicode="&#xb3;" horiz-adv-x="337" 
d="M141 232c-56 0 -114 21 -114 81v42h8c22 -23 61 -36 104 -36s54 15 54 29c0 25 -9 36 -61 39c-27 2 -45 14 -45 41v25l52 5c51 5 52 17 52 34c0 18 -12 36 -62 36c-37 0 -71 -13 -93 -37h-7v44c0 40 41 79 127 79c71 0 135 -40 135 -109c0 -39 -22 -65 -48 -79
c26 -12 50 -40 50 -72c0 -79 -58 -122 -152 -122z" />
    <glyph glyph-name="onehalf" unicode="&#xbd;" horiz-adv-x="811" 
d="M534 594c0 -9 -2 -26 -7 -36l-263 -558h-22c-23 0 -45 17 -45 48c0 13 5 31 12 46l253 540h31c22 0 41 -13 41 -40zM687 0h-176c-27 0 -50 17 -50 46c0 34 25 64 65 96l82 65c16 11 23 25 23 40c0 22 -16 41 -58 41c-48 0 -76 -11 -102 -44h-3v35c0 50 36 96 135 96
c84 0 135 -56 135 -116c0 -53 -20 -78 -82 -121c-17 -11 -36 -21 -73 -52h163v-37c0 -31 -20 -49 -59 -49zM183 247c-32 0 -57 22 -57 58v210l-31 -10c-7 -2 -13 -3 -19 -3c-23 0 -43 13 -47 33l-5 27c28 13 98 41 98 41c16 7 36 11 59 11c24 0 50 -17 50 -48v-319h-48z" />
    <glyph glyph-name="onequarter" unicode="&#xbc;" horiz-adv-x="799" 
d="M534 594c0 -9 -2 -26 -7 -36l-263 -558h-22c-23 0 -45 17 -45 48c0 13 5 31 12 46l253 540h31c22 0 41 -13 41 -40zM231 247h-48c-32 0 -57 22 -57 58v210l-31 -10c-7 -2 -13 -3 -19 -3c-23 0 -43 13 -47 33l-5 27c28 13 98 41 98 41c16 7 36 11 59 11
c24 0 50 -17 50 -48v-319zM718 80h-28v-80h-52c-35 0 -55 14 -55 51v29h-96c-29 0 -59 19 -59 45c0 63 116 210 169 244h33c35 0 60 -23 60 -62v-141h74v-41c0 -26 -17 -45 -46 -45zM583 247c-20 -27 -41 -60 -52 -82h52v82z" />
    <glyph glyph-name="threequarters" unicode="&#xbe;" horiz-adv-x="798" 
d="M773 125c0 -26 -18 -45 -46 -45h-28v-80h-52c-35 0 -55 14 -55 51v29h-96c-29 0 -59 19 -59 45c0 63 115 210 169 244h33c35 0 60 -23 60 -62v-141h74v-41zM557 564c0 -9 -2 -26 -7 -36l-249 -528h-22c-23 0 -45 17 -45 48c0 13 5 31 12 46l239 510h31
c22 0 41 -13 41 -40zM592 165v82c-21 -27 -42 -60 -52 -82h52zM141 232c-56 0 -114 21 -114 81v42h8c22 -23 61 -36 104 -36s54 15 54 29c0 25 -9 36 -61 39c-27 2 -45 14 -45 41v25l52 5c51 5 52 17 52 34c0 18 -12 36 -62 36c-37 0 -71 -13 -93 -37h-7v44
c0 40 41 79 127 79c71 0 135 -40 135 -109c0 -39 -22 -65 -48 -79c26 -12 50 -40 50 -72c0 -79 -58 -122 -152 -122z" />
    <glyph glyph-name="percent" unicode="%" horiz-adv-x="979" 
d="M401 429c0 -116 -58 -208 -165 -208c-99 0 -156 91 -156 194c0 116 57 208 164 208c99 0 157 -91 157 -194zM646 542l-257 -542h-22c-29 0 -50 15 -50 47c0 18 4 26 15 49l247 519h31c22 0 42 -13 42 -39c0 -12 -2 -24 -6 -34zM899 199c0 -116 -58 -208 -165 -208
c-99 0 -157 92 -157 194c0 116 57 207 164 207c99 0 158 -91 158 -193zM301 415c0 77 -20 121 -64 121c-39 0 -57 -44 -57 -107c0 -76 18 -121 63 -121c39 0 58 44 58 107zM802 188c0 77 -19 121 -64 121c-38 0 -58 -44 -58 -107c0 -77 20 -121 65 -121c38 0 57 44 57 107z
" />
    <glyph glyph-name="perthousand" unicode="&#x2030;" horiz-adv-x="1272" 
d="M363 422c0 -113 -56 -203 -161 -203c-97 0 -153 89 -153 189c0 114 56 204 161 204c97 0 153 -89 153 -190zM602 530l-250 -530h-22c-29 0 -49 15 -49 46c0 16 4 27 14 48l242 507h30c22 0 42 -12 42 -38c0 -11 -2 -24 -7 -33zM1221 200c0 -114 -56 -204 -161 -204
c-97 0 -153 90 -153 191c0 113 55 202 160 202c97 0 154 -89 154 -189zM850 200c0 -114 -57 -204 -161 -204c-97 0 -154 90 -154 191c0 113 56 202 161 202c96 0 154 -89 154 -189zM265 408c0 76 -19 119 -62 119c-38 0 -56 -43 -56 -105c0 -74 18 -118 62 -118
c38 0 56 43 56 104zM1127 189c0 76 -20 118 -63 118c-37 0 -57 -43 -57 -105c0 -74 19 -118 63 -118c37 0 57 44 57 105zM755 189c0 76 -19 118 -62 118c-38 0 -57 -43 -57 -105c0 -74 19 -118 63 -118c38 0 56 44 56 105z" />
    <glyph glyph-name="zero.basic" horiz-adv-x="566" 
d="M516 321c0 -230 -99 -332 -233 -332c-136 0 -233 106 -233 308c0 224 95 330 242 330c142 0 224 -119 224 -306zM172 322c0 -169 42 -225 120 -225c60 0 102 60 102 196c0 170 -37 226 -111 226c-62 0 -111 -55 -111 -197z" />
    <glyph glyph-name="one.basic" horiz-adv-x="344" 
d="M294 0h-49c-42 0 -74 27 -74 80v409l-60 -22c-17 -6 -33 -9 -46 -9c-35 0 -54 18 -59 45l-6 32l112 49c62 27 83 32 116 32c40 0 66 -33 66 -65v-551z" />
    <glyph glyph-name="two.basic" horiz-adv-x="530" 
d="M480 60c0 -38 -34 -60 -83 -60h-285c-35 0 -62 27 -62 61c0 42 20 85 116 165l144 120c33 27 42 55 42 82c0 56 -39 91 -107 91c-90 0 -141 -25 -182 -80h-4v44c0 72 54 144 208 144c119 0 206 -83 206 -182c0 -90 -35 -135 -128 -207l-96 -74c-20 -16 -48 -43 -58 -59
h289v-45z" />
    <glyph glyph-name="three.basic" horiz-adv-x="520" 
d="M470 183c0 -116 -81 -194 -242 -194c-98 0 -178 41 -178 124v49h5c38 -41 96 -67 179 -67c81 0 114 37 114 84c0 59 -39 81 -116 83c-54 1 -75 16 -75 47v40c17 2 41 3 67 4c91 3 121 37 121 81c0 55 -38 88 -121 88c-68 0 -132 -23 -165 -66h-4v52c0 51 65 119 191 119
c134 0 220 -68 220 -172c0 -88 -48 -129 -111 -143c54 -11 115 -68 115 -129z" />
    <glyph glyph-name="four.basic" horiz-adv-x="593" 
d="M543 199c0 -32 -17 -53 -51 -53h-46v-146h-47c-43 0 -72 27 -72 79v67h-209c-41 0 -68 28 -68 56c0 34 8 52 16 67c43 77 176 278 261 347h45c44 0 74 -28 74 -86v-283h97v-48zM327 247v244c-43 -55 -127 -178 -163 -244h163z" />
    <glyph glyph-name="five.basic" horiz-adv-x="523" 
d="M473 200c0 -133 -94 -211 -238 -211c-131 0 -185 47 -185 116v46h5c41 -36 85 -54 167 -54c90 0 125 34 125 96c0 63 -47 88 -146 88c-50 0 -101 -10 -144 -20v246c0 71 25 109 98 109h297v-32c0 -45 -29 -75 -84 -75h-191v-137c21 2 55 5 81 5c118 0 215 -66 215 -177z
" />
    <glyph glyph-name="six.basic" horiz-adv-x="549" 
d="M499 209c0 -100 -60 -220 -228 -220c-123 0 -221 89 -221 292c0 232 112 346 278 346c83 0 140 -49 140 -112v-37h-6c-24 25 -58 45 -130 45c-113 0 -157 -77 -160 -200c21 47 73 77 131 77c105 0 196 -67 196 -191zM176 210c0 -63 35 -117 102 -117c68 0 100 36 100 106
c0 68 -45 99 -98 99c-69 0 -104 -41 -104 -88z" />
    <glyph glyph-name="seven.basic" horiz-adv-x="526" 
d="M465 554c0 -27 -23 -83 -53 -146c-54 -113 -161 -228 -161 -356v-52h-50c-37 0 -62 18 -62 69c0 46 18 106 39 145c146 265 158 274 166 293h-292v43c0 39 19 65 67 65h279c49 0 67 -24 67 -61z" />
    <glyph glyph-name="eight.basic" horiz-adv-x="537" 
d="M487 175c0 -106 -58 -186 -226 -186c-131 0 -211 72 -211 177c0 66 52 129 106 145c-52 18 -103 59 -103 134c0 112 95 182 220 182c127 0 211 -76 211 -173c0 -83 -51 -120 -103 -135c50 -18 106 -72 106 -144zM265 520c-57 0 -88 -35 -88 -77c0 -46 28 -79 95 -79
c58 0 89 33 89 75c0 50 -30 81 -96 81zM366 179c0 50 -35 87 -101 87c-50 0 -92 -36 -92 -80c0 -57 27 -90 99 -90c65 0 94 37 94 83z" />
    <glyph glyph-name="nine.basic" horiz-adv-x="549" 
d="M499 323c0 -228 -96 -334 -245 -334c-100 0 -171 42 -171 114v44h5c29 -28 82 -52 160 -52c84 0 123 53 128 191c-16 -47 -57 -79 -114 -79c-128 0 -212 77 -212 193c0 132 80 227 232 227c132 0 217 -84 217 -304zM375 400c0 86 -39 124 -103 124
c-63 0 -98 -46 -98 -110c0 -73 39 -104 97 -104c65 0 104 36 104 90z" />
    <glyph glyph-name="Euro.basic" horiz-adv-x="550" 
d="M478 143h5v-44c0 -47 -48 -110 -144 -110c-132 0 -221 82 -239 219h-76v27c0 25 15 41 36 41h34s-1 16 -1 27c0 9 1 24 1 24h-70v30c0 26 19 40 36 40h40c24 143 126 216 244 216c82 0 139 -52 139 -115v-40h-5c-23 30 -68 52 -118 52c-67 0 -124 -26 -138 -113h188v-26
c0 -26 -17 -44 -43 -44h-152s-1 -15 -1 -24c0 -11 1 -27 1 -27h195v-28c0 -23 -15 -40 -43 -40h-146c13 -80 56 -114 138 -114c49 0 97 20 119 49z" />
    <glyph glyph-name="dollar.basic" horiz-adv-x="550" 
d="M509 184c0 -116 -98 -178 -169 -183v-123h-28c-37 0 -54 17 -54 51v71c-126 5 -164 61 -164 124v42h2c34 -34 95 -64 171 -64c90 0 119 24 119 73c0 45 -22 61 -144 82c-92 15 -162 57 -162 153c0 107 88 172 178 184v121h35c32 0 47 -18 47 -51v-67
c98 -7 152 -46 152 -111v-48h-4c-37 39 -92 56 -159 56c-98 0 -128 -29 -128 -71c0 -41 16 -55 142 -77c106 -19 166 -76 166 -162z" />
    <glyph glyph-name="cent.basic" horiz-adv-x="550" 
d="M277 565c36 0 52 -18 52 -58v-52c55 -7 97 -43 97 -93v-56h-6c-17 29 -54 47 -121 47c-65 0 -120 -52 -120 -119c0 -83 49 -137 123 -137c53 0 101 16 116 41h6v-54c0 -40 -36 -76 -95 -87v-116h-17c-38 0 -58 23 -58 59v56c-106 17 -191 105 -191 221
c0 113 68 212 191 235v113h23z" />
    <glyph glyph-name="sterling.basic" horiz-adv-x="550" 
d="M224 103h246v-40c0 -45 -30 -63 -88 -63h-315v33c0 42 79 102 79 170c0 14 -2 36 -6 50h-106v22c0 44 22 65 65 65h23c-4 23 -11 49 -11 80c0 108 89 183 212 183c65 0 117 -41 117 -86v-45h-5c-28 17 -67 26 -112 26c-50 0 -87 -34 -87 -89c0 -25 3 -49 8 -69h161v-29
c0 -38 -28 -58 -67 -58h-84c2 -8 4 -30 4 -40c0 -45 -13 -84 -34 -110z" />
    <glyph glyph-name="florin.basic" horiz-adv-x="550" 
d="M493 504h-6c-20 8 -51 14 -65 14c-39 0 -66 -28 -74 -87l-8 -57h119v-33c0 -27 -23 -54 -75 -54h-54l-25 -203c-13 -107 -40 -195 -160 -195c-56 0 -90 29 -90 61v48h5c18 -10 54 -15 68 -15c31 0 56 14 65 90l24 214h-103v32c0 32 31 53 61 54l53 1l6 48
c8 66 35 190 180 190c52 0 79 -29 79 -62v-46z" />
    <glyph glyph-name="yen.basic" horiz-adv-x="550" 
d="M498 561c0 -36 -95 -157 -156 -227h127v-38c0 -21 -23 -40 -57 -40h-95v-72h152v-38c0 -18 -24 -40 -57 -40h-95v-106h-50c-26 0 -55 25 -55 60v46h-149v32c0 26 20 46 56 46h93v72h-149v32c0 25 20 46 56 46h71c-65 78 -137 179 -167 269h56c46 0 71 -20 79 -35
c29 -59 76 -136 113 -181c38 45 103 143 134 216h49c29 0 44 -19 44 -42z" />
    <glyph glyph-name="numbersign.basic" horiz-adv-x="664" 
d="M584 422c0 -37 -24 -58 -65 -58h-28l-22 -110h75v-28c0 -37 -23 -60 -65 -60h-27l-32 -166h-37c-36 0 -50 19 -50 51c0 7 1 15 3 23l18 92h-94l-33 -166h-37c-36 0 -49 19 -49 51c0 7 1 16 2 24l18 91h-81v29c0 37 24 59 65 59h34l20 110h-79v27c0 37 23 60 65 60h31
l33 165h28c37 0 57 -18 57 -54c0 -6 -1 -11 -2 -18l-18 -93h95l32 165h28c36 0 58 -19 58 -53c0 -6 0 -13 -2 -21l-17 -91h76v-29zM393 364h-96l-20 -110h94z" />
    <glyph glyph-name="percent.basic" horiz-adv-x="979" 
d="M401 429c0 -116 -58 -208 -165 -208c-99 0 -156 91 -156 194c0 116 57 208 164 208c99 0 157 -91 157 -194zM646 542l-257 -542h-22c-29 0 -50 15 -50 47c0 18 4 26 15 49l247 519h31c22 0 42 -13 42 -39c0 -12 -2 -24 -6 -34zM899 199c0 -116 -58 -208 -165 -208
c-99 0 -157 92 -157 194c0 116 57 207 164 207c99 0 158 -91 158 -193zM301 415c0 77 -20 121 -64 121c-39 0 -57 -44 -57 -107c0 -76 18 -121 63 -121c39 0 58 44 58 107zM802 188c0 77 -19 121 -64 121c-38 0 -58 -44 -58 -107c0 -77 20 -121 65 -121c38 0 57 44 57 107z
" />
    <glyph glyph-name="perthousand.basic" horiz-adv-x="1272" 
d="M363 422c0 -113 -56 -203 -161 -203c-97 0 -153 89 -153 189c0 114 56 204 161 204c97 0 153 -89 153 -190zM602 530l-250 -530h-22c-29 0 -49 15 -49 46c0 16 4 27 14 48l242 507h30c22 0 42 -12 42 -38c0 -11 -2 -24 -7 -33zM1221 200c0 -114 -56 -204 -161 -204
c-97 0 -153 90 -153 191c0 113 55 202 160 202c97 0 154 -89 154 -189zM850 200c0 -114 -57 -204 -161 -204c-97 0 -154 90 -154 191c0 113 56 202 161 202c96 0 154 -89 154 -189zM265 408c0 76 -19 119 -62 119c-38 0 -56 -43 -56 -105c0 -74 18 -118 62 -118
c38 0 56 43 56 104zM1127 189c0 76 -20 118 -63 118c-37 0 -57 -43 -57 -105c0 -74 19 -118 63 -118c37 0 57 44 57 105zM755 189c0 76 -19 118 -62 118c-38 0 -57 -43 -57 -105c0 -74 19 -118 63 -118c38 0 56 44 56 105z" />
    <glyph glyph-name="zero.onum" horiz-adv-x="566" 
d="M516 321c0 -230 -99 -332 -233 -332c-136 0 -233 106 -233 308c0 224 95 330 242 330c142 0 224 -119 224 -306zM172 322c0 -169 42 -225 120 -225c60 0 102 60 102 196c0 170 -37 226 -111 226c-62 0 -111 -55 -111 -197z" />
    <glyph glyph-name="one.onum" horiz-adv-x="344" 
d="M294 0h-49c-42 0 -74 27 -74 80v409l-60 -22c-17 -6 -33 -9 -46 -9c-35 0 -54 18 -59 45l-6 32l112 49c62 27 83 32 116 32c40 0 66 -33 66 -65v-551z" />
    <glyph glyph-name="two.onum" horiz-adv-x="530" 
d="M480 60c0 -38 -34 -60 -83 -60h-285c-35 0 -62 27 -62 61c0 42 20 85 116 165l144 120c33 27 42 55 42 82c0 56 -39 91 -107 91c-90 0 -141 -25 -182 -80h-4v44c0 72 54 144 208 144c119 0 206 -83 206 -182c0 -90 -35 -135 -128 -207l-96 -74c-20 -16 -48 -43 -58 -59
h289v-45z" />
    <glyph glyph-name="three.onum" horiz-adv-x="520" 
d="M470 183c0 -116 -81 -194 -242 -194c-98 0 -178 41 -178 124v49h5c38 -41 96 -67 179 -67c81 0 114 37 114 84c0 59 -39 81 -116 83c-54 1 -75 16 -75 47v40c17 2 41 3 67 4c91 3 121 37 121 81c0 55 -38 88 -121 88c-68 0 -132 -23 -165 -66h-4v52c0 51 65 119 191 119
c134 0 220 -68 220 -172c0 -88 -48 -129 -111 -143c54 -11 115 -68 115 -129z" />
    <glyph glyph-name="four.onum" horiz-adv-x="593" 
d="M543 199c0 -32 -17 -53 -51 -53h-46v-146h-47c-43 0 -72 27 -72 79v67h-209c-41 0 -68 28 -68 56c0 34 8 52 16 67c43 77 176 278 261 347h45c44 0 74 -28 74 -86v-283h97v-48zM327 247v244c-43 -55 -127 -178 -163 -244h163z" />
    <glyph glyph-name="five.onum" horiz-adv-x="523" 
d="M473 200c0 -133 -94 -211 -238 -211c-131 0 -185 47 -185 116v46h5c41 -36 85 -54 167 -54c90 0 125 34 125 96c0 63 -47 88 -146 88c-50 0 -101 -10 -144 -20v246c0 71 25 109 98 109h297v-32c0 -45 -29 -75 -84 -75h-191v-137c21 2 55 5 81 5c118 0 215 -66 215 -177z
" />
    <glyph glyph-name="six.onum" horiz-adv-x="549" 
d="M499 209c0 -100 -60 -220 -228 -220c-123 0 -221 89 -221 292c0 232 112 346 278 346c83 0 140 -49 140 -112v-37h-6c-24 25 -58 45 -130 45c-113 0 -157 -77 -160 -200c21 47 73 77 131 77c105 0 196 -67 196 -191zM176 210c0 -63 35 -117 102 -117c68 0 100 36 100 106
c0 68 -45 99 -98 99c-69 0 -104 -41 -104 -88z" />
    <glyph glyph-name="seven.onum" horiz-adv-x="526" 
d="M465 555c0 -27 -23 -83 -53 -146c-54 -112 -161 -230 -161 -357v-52h-50c-37 0 -62 18 -62 69c0 46 18 106 39 145c146 265 158 275 166 294h-292v43c0 39 19 65 67 65h279c49 0 67 -24 67 -61z" />
    <glyph glyph-name="eight.onum" horiz-adv-x="537" 
d="M487 175c0 -106 -58 -186 -226 -186c-131 0 -211 72 -211 177c0 66 52 129 106 145c-52 18 -103 59 -103 134c0 112 95 182 220 182c127 0 211 -76 211 -173c0 -83 -51 -120 -103 -135c50 -18 106 -72 106 -144zM265 520c-57 0 -88 -35 -88 -77c0 -46 28 -79 95 -79
c58 0 89 33 89 75c0 50 -30 81 -96 81zM366 179c0 50 -35 87 -101 87c-50 0 -92 -36 -92 -80c0 -57 27 -90 99 -90c65 0 94 37 94 83z" />
    <glyph glyph-name="nine.onum" horiz-adv-x="549" 
d="M499 323c0 -228 -96 -334 -245 -334c-100 0 -171 42 -171 114v44h5c29 -28 82 -52 160 -52c84 0 123 53 128 191c-16 -47 -57 -79 -114 -79c-128 0 -212 77 -212 193c0 132 80 227 232 227c132 0 217 -84 217 -304zM375 400c0 86 -39 124 -103 124
c-63 0 -98 -46 -98 -110c0 -73 39 -104 97 -104c65 0 104 36 104 90z" />
    <glyph glyph-name="plus" unicode="+" horiz-adv-x="638" 
d="M558 257c0 -28 -25 -58 -72 -58h-114v-188h-42c-29 0 -60 25 -60 72v116h-190v49c0 26 24 53 59 53h131v170h51c25 0 51 -24 51 -59v-111h186v-44z" />
    <glyph glyph-name="minus" unicode="&#x2212;" horiz-adv-x="590" 
d="M545 354v-53c0 -35 -24 -55 -65 -55h-437v51c0 33 23 57 62 57h440z" />
    <glyph glyph-name="multiply" unicode="&#xd7;" horiz-adv-x="536" 
d="M116 51l-33 33c-10 10 -15 21 -15 32c0 14 8 28 22 42l106 107l-146 147l32 32c10 10 22 15 34 15c12 -1 27 -6 40 -18l108 -108l140 140l31 -32c10 -11 16 -22 16 -35s-6 -27 -18 -39l-102 -102l155 -156l-32 -32c-10 -10 -21 -15 -33 -15c-14 0 -28 7 -42 21l-115 115z
" />
    <glyph glyph-name="divide" unicode="&#xf7;" horiz-adv-x="512" 
d="M411 251h-361v43c0 26 23 47 62 47h360v-43c0 -22 -27 -47 -61 -47zM337 463c0 -42 -34 -76 -76 -76c-41 0 -75 34 -75 76c0 41 34 75 75 75c42 0 76 -34 76 -75zM337 128c0 -42 -34 -76 -76 -76c-41 0 -75 34 -75 76c0 41 34 75 75 75c42 0 76 -34 76 -75z" />
    <glyph glyph-name="equal" unicode="=" horiz-adv-x="522" 
d="M411 320h-361v43c0 26 23 47 62 47h360v-43c0 -22 -27 -47 -61 -47zM411 147h-361v42c0 26 23 47 62 47h360v-43c0 -27 -27 -46 -61 -46z" />
    <glyph glyph-name="notequal" unicode="&#x2260;" horiz-adv-x="522" 
d="M415 473l-31 -63h88v-43c0 -22 -27 -47 -61 -47h-70l-40 -84h171v-43c0 -27 -27 -46 -61 -46h-153l-63 -133h-22c-29 0 -50 15 -50 47c0 17 4 27 15 49l18 37h-106v42c0 26 23 47 62 47h87l40 84h-189v43c0 26 23 47 62 47h170l66 136c20 0 73 -13 73 -39
c0 -12 -2 -24 -6 -34z" />
    <glyph glyph-name="less" unicode="&#x3c;" horiz-adv-x="537" 
d="M487 445c0 -36 -19 -66 -69 -85c-43 -16 -170 -70 -228 -98c64 -35 215 -105 293 -136v-27c0 -36 -33 -47 -65 -47c-45 0 -260 107 -368 184v14c0 31 18 50 52 70c71 41 277 134 385 167v-42z" />
    <glyph glyph-name="greater" unicode="&#x3e;" horiz-adv-x="537" 
d="M50 445v42c108 -33 315 -125 386 -167c33 -19 51 -39 51 -70v-14c-107 -77 -323 -184 -367 -184c-33 0 -66 11 -66 47v27c78 31 229 101 293 136c-58 28 -185 82 -228 98c-50 19 -69 49 -69 85z" />
    <glyph glyph-name="plusminus" unicode="&#xb1;" horiz-adv-x="509" 
d="M459 328c0 -28 -21 -50 -56 -50h-100v-139h-37c-27 0 -52 22 -52 63v76h-161v38c0 25 24 49 55 49h106v123h44c22 0 45 -20 45 -50v-73h156v-37zM444 35c0 -17 -18 -35 -43 -35h-337v35c0 23 18 41 50 41h330v-41z" />
    <glyph glyph-name="logicalnot" unicode="&#xac;" horiz-adv-x="565" 
d="M505 390v-314h-113v200h-352v114h465z" />
    <glyph glyph-name="comma.arabic" unicode="&#x60c;" horiz-adv-x="260" 
d="M40 95c0 74 53 145 118 145h22v-5c-22 -21 -38 -62 -38 -87c0 -42 36 -43 36 -86c0 -35 -28 -62 -66 -62c-43 0 -72 33 -72 95z" />
    <glyph glyph-name="uni0615" unicode="&#x615;" 
d="M9 157c61 0 83 -63 83 -109c0 -27 -8 -48 -19 -48h-32h-165h-7c-12 0 -21 13 -21 24v13h28h1v30v143h9c20 0 28 0 28 -27v-94c23 37 55 68 95 68zM55 37v16c0 29 -8 61 -55 62c-44 -1 -73 -50 -80 -78h93h42z" />
    <glyph glyph-name="semicolon.arabic" unicode="&#x61b;" horiz-adv-x="210" 
d="M122 114c-32 0 -57 -26 -57 -58s25 -58 57 -58s58 26 58 58s-26 58 -58 58zM60 302c0 64 46 125 102 125h14c-19 -20 -32 -57 -32 -78c0 -39 32 -41 32 -78c0 -29 -24 -52 -55 -52c-37 0 -61 29 -61 83z" />
    <glyph glyph-name="questionmark.arabic" unicode="&#x61f;" horiz-adv-x="432" 
d="M33 476c0 87 67 161 193 161c117 0 170 -64 170 -125v-42h-5c-28 38 -78 60 -147 60c-60 0 -90 -24 -90 -67c0 -18 7 -37 27 -54l64 -53c44 -36 59 -69 59 -113c0 -30 -28 -53 -55 -53h-42v32c0 31 -5 45 -39 74l-72 61c-48 41 -63 73 -63 119zM161 77c0 43 35 78 77 78
s78 -35 78 -78c0 -42 -36 -77 -78 -77s-77 35 -77 77z" />
    <glyph glyph-name="kashida" unicode="&#x640;" horiz-adv-x="115" 
d="M0 0v100h130v-100h-130z" />
    <glyph glyph-name="madda" unicode="&#x653;" 
d="M89 67v-22c0 -18 -12 -45 -37 -45h-133v35c0 14 11 32 28 32h142z" />
    <glyph glyph-name="hamza_above" unicode="&#x654;" 
d="M4 39h80l-1 -18c0 -11 -6 -21 -21 -21h-110c-14 0 -23 11 -23 21v18h31c-5 8 -4 17 -5 27c0 39 24 69 64 69c24 0 48 -10 54 -40c0 -15 -3 -28 -13 -39c-10 38 -34 45 -44 45c-15 0 -21 -13 -21 -32c0 -14 1 -24 9 -30z" />
    <glyph glyph-name="hamza_below" unicode="&#x655;" 
d="M4 -96h80l-1 -18c0 -11 -6 -21 -21 -21h-110c-14 0 -23 11 -23 21v18h31c-5 8 -4 17 -5 27c0 39 24 69 64 69c24 0 48 -10 54 -40c0 -15 -3 -28 -13 -39c-10 38 -34 45 -44 45c-15 0 -21 -13 -21 -32c0 -14 1 -24 9 -30z" />
    <glyph glyph-name="alef_subscript" unicode="&#x656;" 
d="M-34 -188v188h69v-176z" />
    <glyph glyph-name="uni0658" unicode="&#x658;" horiz-adv-x="400" 
d="M263 915h62c0 -71 -39 -135 -127 -135s-123 65 -123 135h61c0 -37 21 -68 63 -68c39 0 64 25 64 68z" />
    <glyph glyph-name="zero.indic" unicode="&#x660;" horiz-adv-x="253" 
d="M126 233c-37 0 -66 30 -66 66s29 66 66 66s67 -30 67 -66s-30 -66 -67 -66z" />
    <glyph glyph-name="one.indic" unicode="&#x661;" horiz-adv-x="235" 
d="M175 0h-45c-36 0 -70 24 -70 76v539c81 0 115 -36 115 -40v-575z" />
    <glyph glyph-name="two.indic" unicode="&#x662;" horiz-adv-x="585" 
d="M467 489h-245c-44 0 -48 -30 -48 -61v-370c0 -35 -34 -58 -64 -58h-50v434c0 94 56 166 171 170h294v-51c0 -30 -23 -64 -58 -64z" />
    <glyph glyph-name="three.indic" unicode="&#x663;" horiz-adv-x="718" 
d="M579 615c52 0 79 -26 79 -78v-155c0 -94 -56 -167 -180 -171c-6 0 -74 0 -124 37c-35 -28 -79 -37 -146 -37h-44v-211h-34c-52 0 -79 27 -79 78l-1 537c16 0 114 10 114 -58v-246h68c47 5 65 30 65 76v228h36c52 0 78 -27 78 -78v-142c0 -46 -2 -30 -7 -56
c13 -19 37 -28 61 -28c60 5 77 31 77 76v228h37z" />
    <glyph glyph-name="four.indic" unicode="&#x664;" horiz-adv-x="523" 
d="M388 0h-122c-133 0 -197 70 -197 174c0 53 15 104 29 130c-16 27 -38 78 -38 140c0 85 48 174 206 174h197v-34c0 -47 -20 -67 -75 -67h-156c-26 -1 -70 -2 -70 -54c0 -28 8 -80 22 -109h253v-33c0 -49 -22 -67 -74 -67h-182c-15 -28 -19 -44 -19 -69
c0 -58 22 -83 70 -85h231v-34c0 -46 -19 -66 -75 -66z" />
    <glyph glyph-name="five.indic" unicode="&#x665;" horiz-adv-x="638" 
d="M60 283c0 162 244 315 266 328c20 -13 252 -165 252 -309c0 -168 -84 -302 -266 -302c-169 0 -252 134 -252 283zM314 492c-4 0 -124 -84 -124 -188c0 -124 32 -199 136 -199c92 0 122 75 122 177c0 126 -134 210 -134 210z" />
    <glyph glyph-name="six.indic" unicode="&#x666;" horiz-adv-x="585" 
d="M363 499h-245c-35 0 -58 34 -58 64v51h294c115 -4 171 -76 171 -170v-444h-50c-30 0 -64 23 -64 58v380c0 31 -4 61 -48 61z" />
    <glyph glyph-name="seven.indic" unicode="&#x667;" horiz-adv-x="570" 
d="M359 68c-13 -46 -43 -68 -73 -68c-31 0 -62 24 -75 68c-51 173 -101 357 -151 531c50 15 58 16 64 16c25 0 56 -20 67 -57l95 -330l93 330c11 40 37 57 67 57c20 0 44 -10 64 -16z" />
    <glyph glyph-name="eight.indic" unicode="&#x668;" horiz-adv-x="570" 
d="M359 547l151 -532l-43 -13c-7 -2 -14 -3 -21 -3c-29 0 -56 17 -67 57l-94 331c-29 -100 -64 -231 -94 -331c-13 -37 -41 -57 -67 -57c-19 0 -43 10 -64 16c51 171 101 361 151 532c13 44 44 68 74 68s61 -24 74 -68z" />
    <glyph glyph-name="nine.indic" unicode="&#x669;" horiz-adv-x="518" 
d="M435 0c-56 0 -77 26 -77 74v127h-14c-122 3 -284 27 -284 206c0 121 70 220 201 220c142 0 197 -123 197 -239l-1 -388h-22zM159 420c0 -132 133 -116 199 -118c0 22 1 47 1 72c0 84 -11 169 -107 169c-62 0 -93 -51 -93 -123z" />
    <glyph glyph-name="percentsign.arabic" unicode="&#x66a;" horiz-adv-x="512" 
d="M424 542l-257 -542h-22c-29 0 -50 15 -50 47c0 18 4 26 15 49l247 519h31c22 0 42 -13 42 -39c0 -12 -2 -24 -6 -34zM374 115c-32 0 -57 -26 -57 -58s25 -58 57 -58s58 26 58 58s-26 58 -58 58zM137 604c-32 0 -57 -26 -57 -58s25 -58 57 -58s58 26 58 58s-26 58 -58 58z
" />
    <glyph glyph-name="decimal.arabic" unicode="&#x66b;" horiz-adv-x="230" 
d="M170 33c0 -74 -53 -145 -118 -145h-22v5c22 21 38 62 38 87c0 42 -36 43 -36 86c0 35 28 62 66 62c43 0 72 -33 72 -95z" />
    <glyph glyph-name="thousands.arabic" unicode="&#x66c;" horiz-adv-x="230" 
d="M170 457c0 -74 -53 -145 -118 -145h-22v5c22 21 38 62 38 87c0 42 -36 43 -36 86c0 35 28 62 66 62c43 0 72 -33 72 -95z" />
    <glyph glyph-name="fivept_star.arabic" unicode="&#x66d;" horiz-adv-x="604" 
d="M209 35l-63 49l105 129l-162 41l26 75l145 -61v167h81l-12 -166l154 61l28 -76l-162 -40l104 -130l-63 -48l-90 143z" />
    <glyph glyph-name="alef_superscript" unicode="&#x670;" 
d="M25 0h-18c-17 0 -36 15 -36 40v190h17c18 0 37 -13 37 -36v-194z" />
    <glyph glyph-name="uni06C3" unicode="&#x6c3;" horiz-adv-x="504" 
d="M271 425c122 0 193 -98 193 -206c0 -122 -71 -219 -202 -219c-122 0 -192 97 -192 206c0 121 70 219 201 219zM262 341c-62 0 -93 -51 -93 -122c0 -85 31 -135 102 -135c63 0 93 50 93 122c0 84 -32 135 -102 135zM326 500c-29 0 -51 22 -51 50c0 29 22 50 51 50
c27 0 50 -21 50 -50c0 -28 -23 -50 -50 -50zM211 500c-29 0 -51 22 -51 50c0 29 22 50 51 50c28 0 52 -21 52 -50c0 -28 -24 -50 -52 -50z" />
    <glyph glyph-name="arabicae" unicode="&#x6d5;" horiz-adv-x="504" 
d="M271 425c122 0 193 -98 193 -206c0 -122 -71 -219 -202 -219c-122 0 -192 97 -192 206c0 121 70 219 201 219zM262 341c-62 0 -93 -51 -93 -122c0 -85 31 -135 102 -135c63 0 93 50 93 122c0 84 -32 135 -102 135z" />
    <glyph glyph-name="zero_ext.indic" unicode="&#x6f0;" horiz-adv-x="253" 
d="M135 232c-37 0 -66 30 -66 66s29 66 66 66s67 -30 67 -66s-30 -66 -67 -66z" />
    <glyph glyph-name="one_ext.indic" unicode="&#x6f1;" horiz-adv-x="235" 
d="M175 0h-45c-36 0 -70 24 -70 76v539c81 0 115 -36 115 -40v-575z" />
    <glyph glyph-name="two_ext.indic" unicode="&#x6f2;" horiz-adv-x="585" 
d="M467 500h-245c-44 0 -48 -30 -48 -61v-381c0 -35 -34 -58 -64 -58h-50v445c0 94 56 166 171 170h294v-51c0 -30 -23 -64 -58 -64z" />
    <glyph glyph-name="three_ext.indic" unicode="&#x6f3;" horiz-adv-x="718" 
d="M579 615c52 0 79 -26 79 -78v-144c0 -94 -56 -177 -180 -181c-6 0 -74 0 -124 37c-35 -28 -79 -37 -146 -37h-44v-212h-34c-52 0 -79 27 -79 78l-1 537c16 0 114 10 114 -58v-245h68c47 5 65 30 65 76v227h36c52 0 78 -27 78 -78v-141c0 -46 -2 -30 -7 -56
c13 -19 37 -28 61 -28c60 5 77 31 77 76v227h37z" />
    <glyph glyph-name="four_ext.indic" unicode="&#x6f4;" horiz-adv-x="523" 
d="M388 0h-122c-133 0 -197 70 -197 174c0 53 15 104 29 130c-16 27 -38 78 -38 140c0 85 48 174 206 174h197v-34c0 -47 -20 -67 -75 -67h-156c-26 -1 -70 -2 -70 -54c0 -28 8 -80 22 -109h253v-33c0 -49 -22 -67 -74 -67h-182c-15 -28 -19 -44 -19 -69
c0 -58 22 -83 70 -85h231v-34c0 -46 -19 -66 -75 -66z" />
    <glyph glyph-name="five_ext.indic" unicode="&#x6f5;" horiz-adv-x="638" 
d="M60 283c0 162 244 315 266 328c20 -13 252 -165 252 -309c0 -168 -84 -302 -266 -302c-169 0 -252 134 -252 283zM314 492c-4 0 -124 -84 -124 -188c0 -124 32 -199 136 -199c92 0 122 75 122 177c0 126 -134 210 -134 210z" />
    <glyph glyph-name="six_ext.indic" unicode="&#x6f6;" horiz-adv-x="576" 
d="M363 499h-245c-35 0 -58 34 -58 64v51h294c115 -4 171 -76 171 -170v-444h-50c-30 0 -64 23 -64 58v380c0 31 -4 61 -48 61z" />
    <glyph glyph-name="seven_ext.indic" unicode="&#x6f7;" horiz-adv-x="570" 
d="M359 68c-13 -46 -43 -68 -73 -68c-31 0 -62 24 -75 68c-51 173 -101 357 -151 531c50 15 58 16 64 16c25 0 56 -20 67 -57l95 -330l93 330c11 40 37 57 67 57c20 0 44 -10 64 -16z" />
    <glyph glyph-name="eight_ext.indic" unicode="&#x6f8;" horiz-adv-x="570" 
d="M359 547l151 -532l-43 -13c-7 -2 -14 -3 -21 -3c-29 0 -56 17 -67 57l-94 331c-29 -100 -64 -231 -94 -331c-13 -37 -41 -57 -67 -57c-19 0 -43 10 -64 16c51 171 101 361 151 532c13 44 44 68 74 68s61 -24 74 -68z" />
    <glyph glyph-name="nine_ext.indic" unicode="&#x6f9;" horiz-adv-x="518" 
d="M435 0c-56 0 -77 26 -77 74v126h-14c-122 3 -284 27 -284 206c0 121 70 220 201 220c142 0 197 -123 197 -239l-1 -387h-22zM159 419c0 -132 133 -116 199 -118c0 22 1 47 1 72c0 84 -11 169 -107 169c-62 0 -93 -51 -93 -123z" />
    <glyph glyph-name="parenthesis_left_ornate" unicode="&#xfd3e;" horiz-adv-x="393" 
d="M166 283c0 -212 77 -368 166 -452c-92 1 -129 14 -153 33c-65 52 -149 219 -149 399c0 240 117 449 233 449h70c-92 -97 -167 -232 -167 -429z" />
    <glyph glyph-name="parenthesis_right_ornate" unicode="&#xfd3f;" horiz-adv-x="393" 
d="M227 260c0 212 -77 368 -166 452c92 -1 129 -14 153 -33c65 -52 149 -219 149 -399c0 -240 -117 -449 -233 -449h-70c92 97 167 232 167 429z" />
    <glyph glyph-name="wasla" 
d="M37 157c61 0 83 -63 83 -109c0 -27 -8 -48 -19 -48h-32h-165h-7c-12 0 -21 13 -21 24v13h28h1v30v55h9c20 0 28 0 28 -27v-6c23 37 55 68 95 68zM83 37v16c0 29 -8 61 -55 62c-44 -1 -73 -50 -80 -78h93h42z" />
    <glyph glyph-name="hamza_medial" 
d="M17 67h134v-30c0 -17 -12 -37 -37 -37h-190c-25 0 -37 20 -37 37v30h52c-8 14 -8 30 -8 48c0 65 39 117 111 117c39 0 83 -18 92 -68c0 -27 -17 -46 -21 -70c-20 68 -59 81 -77 81c-25 0 -36 -24 -36 -57c0 -24 2 -43 17 -51z" />
    <glyph glyph-name="xx.TahAbove" 
d="M9 157c61 0 83 -63 83 -109c0 -27 -8 -48 -19 -48h-32h-165h-7c-12 0 -21 13 -21 24v13h28h1v30v143h9c20 0 28 0 28 -27v-94c23 37 55 68 95 68zM55 37v16c0 29 -8 61 -55 62c-44 -1 -73 -50 -80 -78h93h42z" />
    <glyph glyph-name="shadda_fathatan" 
d="M-123 1l6 -72c2 -20 12 -34 30 -34c10 0 22 7 22 25c0 15 -2 36 -4 56c-2 18 3 22 24 22l6 -73c1 -19 10 -31 28 -31c16 0 24 13 23 34l-3 49c-1 9 -1 19 12 20h10l5 -78c1 -20 -10 -45 -43 -45c-12 0 -25 2 -43 18c-8 -11 -22 -17 -37 -17c-35 0 -51 26 -54 56
c-5 50 -4 51 -4 53c0 11 8 15 22 17zM17 66c-43 -3 -103 -6 -149 -8c-13 -1 -13 16 -13 24c55 3 97 5 145 8c9 1 16 -8 17 -24zM25 23c-43 -3 -103 -6 -149 -8c-13 -1 -13 16 -13 24c55 3 97 5 145 8c9 1 16 -8 17 -24z" />
    <glyph glyph-name="hamza_above_damma" 
d="M55 303c32 0 57 -25 57 -59c0 -87 -148 -92 -182 -92c-19 0 -20 3 -21 19l8 1c14 8 22 25 22 44c0 22 -13 36 -36 36c-14 0 -23 -7 -27 -13c-2 4 -4 8 -4 12c0 10 12 22 35 22c38 0 58 -28 58 -57c0 -13 -5 -26 -15 -42c27 2 57 6 75 11c-18 14 -29 33 -29 53
c0 36 26 65 59 65zM53 199c23 0 33 20 33 42c0 25 -14 41 -34 41c-21 0 -32 -17 -32 -39c0 -24 14 -44 33 -44zM9 39h80l-1 -18c0 -11 -6 -21 -21 -21h-110c-14 0 -23 11 -23 21v18h31c-5 8 -4 17 -5 27c0 39 24 69 64 69c24 0 48 -10 54 -40c0 -15 -3 -28 -13 -39
c-10 38 -34 45 -44 45c-15 0 -21 -13 -21 -32c0 -14 1 -24 9 -30z" />
    <glyph glyph-name="hamza_above_sukun" 
d="M14 302c47 0 68 -38 68 -73c0 -43 -35 -77 -75 -77c-45 0 -65 41 -65 75c0 46 32 75 72 75zM16 277c-29 0 -43 -25 -43 -54s14 -46 39 -46c26 0 37 27 37 57c0 25 -12 39 -33 43zM9 39h80l-1 -18c0 -11 -6 -21 -21 -21h-110c-14 0 -23 11 -23 21v18h31c-5 8 -4 17 -5 27
c0 39 24 69 64 69c24 0 48 -10 54 -40c0 -15 -3 -28 -13 -39c-10 38 -34 45 -44 45c-15 0 -21 -13 -21 -32c0 -14 1 -24 9 -30z" />
    <glyph glyph-name="hamza_above_fathatan" 
d="M91 204c-43 -3 -103 -6 -149 -8c-13 -1 -13 16 -13 24c55 3 97 5 145 8c9 1 16 -8 17 -24zM99 161c-43 -3 -103 -6 -149 -8c-13 -1 -13 16 -13 24c55 3 97 5 145 8c9 1 16 -8 17 -24zM9 39h80l-1 -18c0 -11 -6 -21 -21 -21h-110c-14 0 -23 11 -23 21v18h31
c-5 8 -4 17 -5 27c0 39 24 69 64 69c24 0 48 -10 54 -40c0 -15 -3 -28 -13 -39c-10 38 -34 45 -44 45c-15 0 -21 -13 -21 -32c0 -14 1 -24 9 -30z" />
    <glyph glyph-name="hamza_above_dammatan" 
d="M31 188c22 1 29 18 29 42c0 27 -15 43 -35 43s-30 -19 -30 -41c0 -27 15 -44 36 -44zM27 292c31 0 58 -21 58 -56c0 -102 -179 -92 -186 -94c-14 0 -15 6 -16 18l19 1c26 1 73 6 95 14c-17 13 -26 32 -26 52c0 37 24 65 56 65zM9 39h80l-1 -18c0 -11 -6 -21 -21 -21h-110
c-14 0 -23 11 -23 21v18h31c-5 8 -4 17 -5 27c0 39 24 69 64 69c24 0 48 -10 54 -40c0 -15 -3 -28 -13 -39c-10 38 -34 45 -44 45c-15 0 -21 -13 -21 -32c0 -14 1 -24 9 -30z" />
    <glyph glyph-name="hamza_above_fatha" 
d="M97 159c-43 -3 -103 -6 -149 -8c-13 -1 -13 16 -13 24c55 3 97 5 145 8c9 1 16 -8 17 -24zM9 39h80l-1 -18c0 -11 -6 -21 -21 -21h-110c-14 0 -23 11 -23 21v18h31c-5 8 -4 17 -5 27c0 39 24 69 64 69c24 0 48 -10 54 -40c0 -15 -3 -28 -13 -39c-10 38 -34 45 -44 45
c-15 0 -21 -13 -21 -32c0 -14 1 -24 9 -30z" />
    <glyph glyph-name="hamza_below_kasratan" 
d="M94 -171c-43 -3 -103 -6 -149 -8c-13 -1 -13 16 -13 24c55 3 97 5 145 8c9 1 16 -8 17 -24zM102 -214c-43 -3 -103 -6 -149 -8c-13 -1 -13 16 -13 24c55 3 97 5 145 8c9 1 16 -8 17 -24zM9 -96h80l-1 -18c0 -11 -6 -21 -21 -21h-110c-14 0 -23 11 -23 21v18h31
c-5 8 -4 17 -5 27c0 39 24 69 64 69c24 0 48 -10 54 -40c0 -15 -3 -28 -13 -39c-10 38 -34 45 -44 45c-15 0 -21 -13 -21 -32c0 -14 1 -24 9 -30z" />
    <glyph glyph-name="hamza_below_kasra" 
d="M94 -85c-43 -3 -103 -6 -149 -8c-13 -1 -13 16 -13 24c55 3 97 5 145 8c9 1 16 -8 17 -24zM10 -94h80l-1 -18c0 -11 -6 -21 -21 -21h-110c-14 0 -23 11 -23 21v18h31c-5 8 -4 17 -5 27c0 39 24 69 64 69c24 0 48 -10 54 -40c0 -15 -3 -28 -13 -39c-10 38 -34 45 -44 45
c-15 0 -21 -13 -21 -32c0 -14 1 -24 9 -30z" />
    <glyph glyph-name="wasle" horiz-adv-x="103" 
d="M0 0v100h117v-100h-117z" />
    <glyph glyph-name="Kashida.Narrow" horiz-adv-x="189" 
d="M0 0v100h209v-100h-209z" />
    <glyph glyph-name="kashida.long" horiz-adv-x="209" 
d="M-1 0v100h211v-100h-211z" />
    <glyph glyph-name="tooth.init" horiz-adv-x="286" 
d="M169 341c51 0 77 -27 77 -79v-92c0 -93 -55 -166 -169 -170h-92v100h83c46 5 64 30 64 76v165h37z" />
    <glyph glyph-name="tooth.init.long" horiz-adv-x="286" 
d="M169 341c51 0 77 -27 77 -79v-92c0 -93 -55 -166 -169 -170h-92v100h83c46 5 64 30 64 76v165h37z" />
    <glyph glyph-name="logo.001" unicode="&#xfb;" horiz-adv-x="1492" 
d="M1408 188c-31 0 -43 -9 -43 -23c0 -9 8 -14 47 -22c44 -9 70 -33 70 -66c0 -49 -39 -76 -93 -76c-42 0 -72 20 -72 51l2 33c18 -20 46 -36 71 -36c28 0 39 8 39 25c0 13 -9 18 -51 27c-43 9 -65 26 -65 62c0 39 33 75 92 75c36 0 72 -16 72 -48v-23c-24 11 -45 21 -69 21
zM1223 194c13 14 20 26 20 38c0 15 -22 21 -22 43c0 19 12 34 36 34c19 0 37 -16 37 -52c0 -38 -21 -65 -55 -65c-5 0 -10 1 -16 2zM1130 39v254h24c13 0 28 -11 28 -26v-263h-21c-19 0 -31 12 -31 35zM968 4h-24c-52 0 -77 25 -77 65v217c18 5 47 8 68 8h34
c70 0 129 -56 129 -143c0 -89 -53 -147 -130 -147zM961 247h-16c-6 0 -17 -1 -26 -3v-165c0 -20 10 -28 31 -28h16c51 0 80 38 80 94c0 71 -31 102 -85 102zM779 42c0 35 -5 119 -12 174c-1 -8 -8 -24 -8 -28l-3 -9c-13 -40 -28 -81 -43 -121c-3 -8 -1 -10 -25 -54h-11
c-13 0 -32 19 -53 78c-19 63 -45 135 -45 135c-11 -70 -12 -157 -13 -213h-19c-18 0 -33 14 -33 38c0 76 15 190 26 251h21c48 0 65 -54 75 -88l13 -43c6 -14 11 -28 15 -42v1c4 -16 9 -27 10 -29c3 8 4 21 10 29h-1c19 58 52 139 75 172h14c30 0 41 -23 46 -57
c6 -69 13 -168 14 -232h-22c-20 0 -31 12 -31 38zM483 4c-39 0 -33 38 -43 73h-115c-6 -20 -12 -49 -17 -73h-20c-15 0 -24 10 -24 26c0 38 56 210 100 263h16c40 0 103 -137 127 -289h-24zM427 121c-13 44 -28 81 -45 116c-19 -35 -33 -72 -45 -116h90zM198 39v92h-122
v-127h-22c-14 0 -30 12 -30 35v254h26c12 0 26 -11 26 -26v-88h122v114h25c14 0 27 -11 27 -26v-263h-20c-14 0 -32 12 -32 35zM212 346h-29c-56 0 -85 25 -85 72v207c16 4 55 14 80 14h33c58 0 97 -32 97 -81c0 -29 -9 -48 -30 -59c19 -13 35 -38 35 -59
c0 -62 -46 -94 -101 -94zM202 527c21 0 36 8 36 26s-17 24 -34 24h-21s-11 -1 -16 -1v-49h35zM204 469h-37v-47c0 -7 7 -10 16 -10h24c24 0 36 10 36 25c0 25 -12 32 -39 32zM0 391v246h33c17 0 37 -14 37 -38v-251h-29c-18 0 -41 15 -41 43zM1420 391c0 26 -2 91 -7 133
c0 -2 -1 -5 -1 -6c-9 -24 -15 -50 -25 -73l-13 -45c-5 -18 -18 -38 -28 -52h-18c-22 0 -40 15 -52 47l-40 122c-2 1 -2 0 -3 5c-5 -51 -8 -134 -8 -174h-26c-27 0 -43 15 -43 43c0 61 14 188 23 246h19c41 0 69 -17 83 -50l37 -109c4 -10 6 -17 9 -23c0 4 3 8 4 13
c26 80 51 152 73 169h12c33 0 57 -24 62 -63c5 -45 14 -167 14 -226h-29c-26 0 -43 13 -43 43zM1065 391v246h31c18 0 37 -14 37 -38v-251h-27c-20 0 -41 15 -41 43zM966 392v74h-95v-118h-28c-24 0 -41 15 -41 44v245h35c20 0 33 -16 33 -37v-74h96v111h34
c17 0 37 -14 37 -37v-252h-30c-21 0 -41 15 -41 44zM722 380c-1 17 -3 26 -6 37h-97c-5 -16 -14 -52 -14 -69h-27c-24 0 -33 11 -33 33c0 41 53 207 98 256h25c25 0 42 -14 51 -30c25 -46 68 -169 78 -259h-30c-28 0 -43 15 -45 32zM700 475c-9 32 -22 64 -32 88
c-12 -24 -25 -58 -34 -88h66zM514 444l24 -52l-1 1c9 -19 16 -27 17 -34c-8 -10 -14 -14 -35 -14c-63 0 -60 109 -99 109l-20 3v-109h-24c-30 0 -45 16 -45 44v235c11 7 56 13 78 13h31c59 0 98 -37 98 -88c0 -33 -21 -63 -45 -76c9 -8 15 -19 21 -32zM466 543
c0 28 -14 34 -33 34h-16s-12 -1 -17 -1v-61c10 -1 22 -1 32 -1c18 0 34 11 34 29z" />
    <glyph glyph-name="logo" horiz-adv-x="1245" 
 />
    <glyph glyph-name="uni000D" unicode="&#xd;" 
 />
    </font>
</defs>
</svg>
